  0
SECTION
  2
HEADER
  9
$ACADVER
  1
AC1015
  9
$ACADMAINTVER
 70
     6
  9
$DWGCODEPAGE
  3
ANSI_1252
  9
$INSBASE
 10
0.0
 20
0.0
 30
0.0
  9
$EXTMIN
 10
0.0
 20
0.0
 30
0.0
  9
$EXTMAX
 10
210.0000000000001
 20
297.0000000000001
 30
0.0
  9
$LIMMIN
 10
0.0
 20
0.0
  9
$LIMMAX
 10
12.0
 20
9.0
  9
$ORTHOMODE
 70
     0
  9
$REGENMODE
 70
     1
  9
$FILLMODE
 70
     1
  9
$QTEXTMODE
 70
     0
  9
$MIRRTEXT
 70
     1
  9
$LTSCALE
 40
1.0
  9
$ATTMODE
 70
     1
  9
$TEXTSIZE
 40
0.2
  9
$TRACEWID
 40
0.05
  9
$TEXTSTYLE
  7
Standard
  9
$CLAYER
  8
0
  9
$CELTYPE
  6
ByLayer
  9
$CECOLOR
 62
   256
  9
$CELTSCALE
 40
1.0
  9
$DISPSILH
 70
     0
  9
$DIMSCALE
 40
1.0
  9
$DIMASZ
 40
0.18
  9
$DIMEXO
 40
0.0625
  9
$DIMDLI
 40
0.38
  9
$DIMRND
 40
0.0
  9
$DIMDLE
 40
0.0
  9
$DIMEXE
 40
0.18
  9
$DIMTP
 40
0.0
  9
$DIMTM
 40
0.0
  9
$DIMTXT
 40
0.18
  9
$DIMCEN
 40
0.09
  9
$DIMTSZ
 40
0.0
  9
$DIMTOL
 70
     0
  9
$DIMLIM
 70
     0
  9
$DIMTIH
 70
     1
  9
$DIMTOH
 70
     1
  9
$DIMSE1
 70
     0
  9
$DIMSE2
 70
     0
  9
$DIMTAD
 70
     0
  9
$DIMZIN
 70
     0
  9
$DIMBLK
  1

  9
$DIMASO
 70
     1
  9
$DIMSHO
 70
     1
  9
$DIMPOST
  1

  9
$DIMAPOST
  1

  9
$DIMALT
 70
     0
  9
$DIMALTD
 70
     2
  9
$DIMALTF
 40
25.4
  9
$DIMLFAC
 40
1.0
  9
$DIMTOFL
 70
     0
  9
$DIMTVP
 40
0.0
  9
$DIMTIX
 70
     0
  9
$DIMSOXD
 70
     0
  9
$DIMSAH
 70
     0
  9
$DIMBLK1
  1

  9
$DIMBLK2
  1

  9
$DIMSTYLE
  2
Standard
  9
$DIMCLRD
 70
     0
  9
$DIMCLRE
 70
     0
  9
$DIMCLRT
 70
     0
  9
$DIMTFAC
 40
1.0
  9
$DIMGAP
 40
0.09
  9
$DIMJUST
 70
     0
  9
$DIMSD1
 70
     0
  9
$DIMSD2
 70
     0
  9
$DIMTOLJ
 70
     1
  9
$DIMTZIN
 70
     0
  9
$DIMALTZ
 70
     0
  9
$DIMALTTZ
 70
     0
  9
$DIMUPT
 70
     0
  9
$DIMDEC
 70
     4
  9
$DIMTDEC
 70
     4
  9
$DIMALTU
 70
     2
  9
$DIMALTTD
 70
     2
  9
$DIMTXSTY
  7
Standard
  9
$DIMAUNIT
 70
     0
  9
$DIMADEC
 70
     0
  9
$DIMALTRND
 40
0.0
  9
$DIMAZIN
 70
     0
  9
$DIMDSEP
 70
    46
  9
$DIMATFIT
 70
     3
  9
$DIMFRAC
 70
     0
  9
$DIMLDRBLK
  1

  9
$DIMLUNIT
 70
     2
  9
$DIMLWD
 70
    -2
  9
$DIMLWE
 70
    -2
  9
$DIMTMOVE
 70
     0
  9
$LUNITS
 70
     2
  9
$LUPREC
 70
     4
  9
$SKETCHINC
 40
0.1
  9
$FILLETRAD
 40
0.5
  9
$AUNITS
 70
     0
  9
$AUPREC
 70
     0
  9
$MENU
  1
.
  9
$ELEVATION
 40
0.0
  9
$PELEVATION
 40
0.0
  9
$THICKNESS
 40
0.0
  9
$LIMCHECK
 70
     0
  9
$CHAMFERA
 40
0.5
  9
$CHAMFERB
 40
0.5
  9
$CHAMFERC
 40
1.0
  9
$CHAMFERD
 40
0.0
  9
$SKPOLY
 70
     0
  9
$TDCREATE
 40
2456997.49108581
  9
$TDUCREATE
 40
2456997.449419144
  9
$TDUPDATE
 40
2456997.491086169
  9
$TDUUPDATE
 40
2456997.449419502
  9
$TDINDWG
 40
0.0000000116
  9
$TDUSRTIMER
 40
0.0000000116
  9
$USRTIMER
 70
     1
  9
$ANGBASE
 50
0.0
  9
$ANGDIR
 70
     0
  9
$PDMODE
 70
     0
  9
$PDSIZE
 40
0.0
  9
$PLINEWID
 40
0.0
  9
$SPLFRAME
 70
     0
  9
$SPLINETYPE
 70
     6
  9
$SPLINESEGS
 70
     8
  9
$HANDSEED
  5
613
  9
$SURFTAB1
 70
     6
  9
$SURFTAB2
 70
     6
  9
$SURFTYPE
 70
     6
  9
$SURFU
 70
     6
  9
$SURFV
 70
     6
  9
$UCSBASE
  2

  9
$UCSNAME
  2

  9
$UCSORG
 10
0.0
 20
0.0
 30
0.0
  9
$UCSXDIR
 10
1.0
 20
0.0
 30
0.0
  9
$UCSYDIR
 10
0.0
 20
1.0
 30
0.0
  9
$UCSORTHOREF
  2

  9
$UCSORTHOVIEW
 70
     0
  9
$UCSORGTOP
 10
0.0
 20
0.0
 30
0.0
  9
$UCSORGBOTTOM
 10
0.0
 20
0.0
 30
0.0
  9
$UCSORGLEFT
 10
0.0
 20
0.0
 30
0.0
  9
$UCSORGRIGHT
 10
0.0
 20
0.0
 30
0.0
  9
$UCSORGFRONT
 10
0.0
 20
0.0
 30
0.0
  9
$UCSORGBACK
 10
0.0
 20
0.0
 30
0.0
  9
$PUCSBASE
  2

  9
$PUCSNAME
  2

  9
$PUCSORG
 10
0.0
 20
0.0
 30
0.0
  9
$PUCSXDIR
 10
1.0
 20
0.0
 30
0.0
  9
$PUCSYDIR
 10
0.0
 20
1.0
 30
0.0
  9
$PUCSORTHOREF
  2

  9
$PUCSORTHOVIEW
 70
     0
  9
$PUCSORGTOP
 10
0.0
 20
0.0
 30
0.0
  9
$PUCSORGBOTTOM
 10
0.0
 20
0.0
 30
0.0
  9
$PUCSORGLEFT
 10
0.0
 20
0.0
 30
0.0
  9
$PUCSORGRIGHT
 10
0.0
 20
0.0
 30
0.0
  9
$PUCSORGFRONT
 10
0.0
 20
0.0
 30
0.0
  9
$PUCSORGBACK
 10
0.0
 20
0.0
 30
0.0
  9
$USERI1
 70
     0
  9
$USERI2
 70
     0
  9
$USERI3
 70
     0
  9
$USERI4
 70
     0
  9
$USERI5
 70
     0
  9
$USERR1
 40
18.1
  9
$USERR2
 40
0.0
  9
$USERR3
 40
0.0
  9
$USERR4
 40
0.0
  9
$USERR5
 40
0.0
  9
$WORLDVIEW
 70
     1
  9
$SHADEDGE
 70
     3
  9
$SHADEDIF
 70
    70
  9
$TILEMODE
 70
     1
  9
$MAXACTVP
 70
    64
  9
$PINSBASE
 10
0.0
 20
0.0
 30
0.0
  9
$PLIMCHECK
 70
     0
  9
$PEXTMIN
 10
1.00000000000000E+20
 20
1.00000000000000E+20
 30
1.00000000000000E+20
  9
$PEXTMAX
 10
-1.00000000000000E+20
 20
-1.00000000000000E+20
 30
-1.00000000000000E+20
  9
$PLIMMIN
 10
0.0
 20
0.0
  9
$PLIMMAX
 10
12.0
 20
9.0
  9
$UNITMODE
 70
     0
  9
$VISRETAIN
 70
     1
  9
$PLINEGEN
 70
     0
  9
$PSLTSCALE
 70
     1
  9
$TREEDEPTH
 70
  3020
  9
$CMLSTYLE
  2
Standard
  9
$CMLJUST
 70
     0
  9
$CMLSCALE
 40
1.0
  9
$PROXYGRAPHICS
 70
     1
  9
$MEASUREMENT
 70
     1
  9
$CELWEIGHT
370
    -1
  9
$ENDCAPS
280
     0
  9
$JOINSTYLE
280
     0
  9
$LWDISPLAY
290
     0
  9
$INSUNITS
 70
     4
  9
$HYPERLINKBASE
  1

  9
$STYLESHEET
  1

  9
$XEDIT
290
     1
  9
$CEPSNTYPE
380
     0
  9
$PSTYLEMODE
290
     1
  9
$FINGERPRINTGUID
  2
{A8906ED1-6662-4BC9-8DB2-8406625A5BF8}
  9
$VERSIONGUID
  2
{FAEB1C32-E019-11D5-929B-00C0DF256EC4}
  9
$EXTNAMES
290
     1
  9
$PSVPSCALE
 40
0.0
  9
$OLESTARTUP
290
     0
  0
ENDSEC
  0
SECTION
  2
CLASSES
  0
CLASS
  1
ACDBDICTIONARYWDFLT
  2
AcDbDictionaryWithDefault
  3
ObjectDBX Classes
 90
        0
280
     0
281
     0
  0
CLASS
  1
VISUALSTYLE
  2
AcDbVisualStyle
  3
ObjectDBX Classes
 90
     4095
280
     0
281
     0
  0
CLASS
  1
MATERIAL
  2
AcDbMaterial
  3
ObjectDBX Classes
 90
     1153
280
     0
281
     0
  0
CLASS
  1
DICTIONARYVAR
  2
AcDbDictionaryVar
  3
ObjectDBX Classes
 90
        0
280
     0
281
     0
  0
CLASS
  1
ACDBPLACEHOLDER
  2
AcDbPlaceHolder
  3
ObjectDBX Classes
 90
        0
280
     0
281
     0
  0
CLASS
  1
LAYOUT
  2
AcDbLayout
  3
ObjectDBX Classes
 90
        0
280
     0
281
     0
  0
ENDSEC
  0
SECTION
  2
TABLES
  0
TABLE
  2
VPORT
  5
8
330
0
100
AcDbSymbolTable
 70
     1
  0
VPORT
  5
29
330
8
100
AcDbSymbolTableRecord
100
AcDbViewportTableRecord
  2
*Active
 70
     0
 10
0.0
 20
0.0
 11
1.0
 21
1.0
 12
105.0000000000001
 22
148.5000000000001
 13
0.0
 23
0.0
 14
0.5
 24
0.5
 15
0.5
 25
0.5
 16
0.0
 26
0.0
 36
1.0
 17
0.0
 27
0.0
 37
0.0
 40
326.7000000000002
 41
1.60267857142857
 42
50.0
 43
0.0
 44
0.0
 50
0.0
 51
0.0
 71
     0
 72
   100
 73
     1
 74
     3
 75
     0
 76
     0
 77
     0
 78
     0
281
     0
 65
     1
110
0.0
120
0.0
130
0.0
111
1.0
121
0.0
131
0.0
112
0.0
122
1.0
132
0.0
 79
     0
146
0.0
  0
ENDTAB
  0
TABLE
  2
LTYPE
  5
5
330
0
100
AcDbSymbolTable
 70
     8
  0
LTYPE
  5
14
330
5
100
AcDbSymbolTableRecord
100
AcDbLinetypeTableRecord
  2
ByBlock
 70
     0
  3

 72
    65
 73
     0
 40
0.0
  0
LTYPE
  5
15
330
5
100
AcDbSymbolTableRecord
100
AcDbLinetypeTableRecord
  2
ByLayer
 70
     0
  3

 72
    65
 73
     0
 40
0.0
  0
LTYPE
  5
16
330
5
100
AcDbSymbolTableRecord
100
AcDbLinetypeTableRecord
  2
Continuous
 70
     0
  3
Solid line
 72
    65
 73
     0
 40
0.0
  0
LTYPE
  5
3F
330
5
100
AcDbSymbolTableRecord
100
AcDbLinetypeTableRecord
  2
DASHED
 70
     0
  3
Dashed
 72
    65
 73
     2
 40
15.0
 49
7.0
 74
     0
 49
-8.0
 74
     0
  0
LTYPE
  5
40
330
5
100
AcDbSymbolTableRecord
100
AcDbLinetypeTableRecord
  2
DOTTED
 70
     0
  3
Dotted
 72
    65
 73
     2
 40
1.0
 49
0.0
 74
     0
 49
-1.0
 74
     0
  0
LTYPE
  5
41
330
5
100
AcDbSymbolTableRecord
100
AcDbLinetypeTableRecord
  2
DOT_CENTER
 70
     0
  3
Dot_Center
 72
    65
 73
     4
 40
14.0
 49
12.0
 74
     0
 49
-1.0
 74
     0
 49
0.0
 74
     0
 49
-1.0
 74
     0
  0
LTYPE
  5
42
330
5
100
AcDbSymbolTableRecord
100
AcDbLinetypeTableRecord
  2
LONG_DASHED
 70
     0
  3
Long_Dashed
 72
    65
 73
     2
 40
15.0
 49
10.0
 74
     0
 49
-5.0
 74
     0
  0
LTYPE
  5
43
330
5
100
AcDbSymbolTableRecord
100
AcDbLinetypeTableRecord
  2
DASH_CENTER
 70
     0
  3
Dash_Center
 72
    65
 73
     4
 40
14.0
 49
11.0
 74
     0
 49
-1.0
 74
     0
 49
1.0
 74
     0
 49
-1.0
 74
     0
  0
LTYPE
  5
44
330
5
100
AcDbSymbolTableRecord
100
AcDbLinetypeTableRecord
  2
PHANTOM
 70
     0
  3
Phantom
 72
    65
 73
     6
 40
13.0
 49
10.0
 74
     0
 49
-1.0
 74
     0
 49
0.0
 74
     0
 49
-1.0
 74
     0
 49
0.0
 74
     0
 49
-1.0
 74
     0
  0
LTYPE
  5
45
330
5
100
AcDbSymbolTableRecord
100
AcDbLinetypeTableRecord
  2
CENTER_DASH_DASH
 70
     0
  3
Center_Dash_Dash
 72
    65
 73
     6
 40
14.0
 49
9.0
 74
     0
 49
-1.0
 74
     0
 49
1.0
 74
     0
 49
-1.0
 74
     0
 49
1.0
 74
     0
 49
-1.0
 74
     0
  0
ENDTAB
  0
TABLE
  2
LAYER
  5
2
330
0
100
AcDbSymbolTable
 70
     2
  0
LAYER
  5
10
330
2
100
AcDbSymbolTableRecord
100
AcDbLayerTableRecord
  2
0
 70
     0
 62
     7
  6
Continuous
370
    -3
390
F
  0
LAYER
  5
46
330
2
100
AcDbSymbolTableRecord
100
AcDbLayerTableRecord
  2
1
 70
     0
 62
     7
  6
Continuous
370
    -3
390
F
  0
ENDTAB
  0
TABLE
  2
STYLE
  5
3
330
0
100
AcDbSymbolTable
 70
     4
  0
STYLE
  5
11
330
3
100
AcDbSymbolTableRecord
100
AcDbTextStyleTableRecord
  2
Standard
 70
     0
 40
0.0
 41
1.0
 50
0.0
 71
     0
 42
0.2
  3
txt
  4

  0
STYLE
  5
59E
330
3
100
AcDbSymbolTableRecord
100
AcDbTextStyleTableRecord
  2
CONVERTER_11
 70
     0
 40
0.0
 41
1.2
 50
0.0
 71
     0
 42
0.2
  3
ARIAL.TTF
  4

  0
STYLE
  5
5A0
330
3
100
AcDbSymbolTableRecord
100
AcDbTextStyleTableRecord
  2
CONVERTER_12
 70
     0
 40
0.0
 41
0.95
 50
0.0
 71
     0
 42
0.2
  3
simplex.shx
  4

  0
STYLE
  5
5AE
330
3
100
AcDbSymbolTableRecord
100
AcDbTextStyleTableRecord
  2
CONVERTER_13
 70
     0
 40
0.0
 41
0.855
 50
0.0
 71
     0
 42
0.2
  3
simplex.shx
  4

  0
ENDTAB
  0
TABLE
  2
VIEW
  5
6
330
0
100
AcDbSymbolTable
 70
     0
  0
ENDTAB
  0
TABLE
  2
UCS
  5
7
330
0
100
AcDbSymbolTable
 70
     0
  0
ENDTAB
  0
TABLE
  2
APPID
  5
9
330
0
100
AcDbSymbolTable
 70
     1
  0
APPID
  5
12
330
9
100
AcDbSymbolTableRecord
100
AcDbRegAppTableRecord
  2
ACAD
 70
     0
  0
ENDTAB
  0
TABLE
  2
DIMSTYLE
  5
A
330
0
100
AcDbSymbolTable
 70
     4
100
AcDbDimStyleTable
  0
DIMSTYLE
105
27
330
A
100
AcDbSymbolTableRecord
100
AcDbDimStyleTableRecord
  2
Standard
 70
     0
178
     0
340
11
  0
DIMSTYLE
105
5C9
102
{ACAD_REACTORS
330
5CA
102
}
330
A
100
AcDbSymbolTableRecord
100
AcDbDimStyleTableRecord
  2
ME10_DIM_10
 70
     0
 41
3.0
 42
0.5
 44
1.0
 73
     0
 74
     0
 77
     1
 78
     8
140
3.0
147
2.0
172
     1
173
     1
174
     1
175
     1
176
     2
177
     2
271
     2
178
     4
271
     2
340
5A0
  0
DIMSTYLE
105
5D4
102
{ACAD_REACTORS
330
5D5
102
}
330
A
100
AcDbSymbolTableRecord
100
AcDbDimStyleTableRecord
  2
ME10_DIM_11
 70
     0
 41
3.0
 42
0.5
 44
1.0
 73
     0
 74
     0
 77
     1
 78
     8
140
3.0
147
2.0
172
     1
173
     1
174
     1
175
     1
176
     2
177
     2
271
     2
178
     4
271
     2
340
5A0
  0
DIMSTYLE
105
5DF
102
{ACAD_REACTORS
330
5E0
102
}
330
A
100
AcDbSymbolTableRecord
100
AcDbDimStyleTableRecord
  2
ME10_DIM_12
 70
     0
 41
3.0
 42
0.5
 44
1.0
 73
     0
 74
     0
 77
     1
 78
     8
140
3.0
147
2.0
172
     1
173
     1
174
     1
175
     1
176
     2
177
     2
271
     2
178
     4
271
     2
340
5A0
  0
ENDTAB
  0
TABLE
  2
BLOCK_RECORD
  5
1
330
0
100
AcDbSymbolTable
 70
     4
  0
BLOCK_RECORD
  5
1F
330
1
100
AcDbSymbolTableRecord
100
AcDbBlockTableRecord
  2
*Model_Space
340
22
  0
BLOCK_RECORD
  5
1B
330
1
100
AcDbSymbolTableRecord
100
AcDbBlockTableRecord
  2
*Paper_Space
340
1E
  0
BLOCK_RECORD
  5
23
330
1
100
AcDbSymbolTableRecord
100
AcDbBlockTableRecord
  2
*Paper_Space0
340
26
  0
BLOCK_RECORD
  5
5C0
330
1
100
AcDbSymbolTableRecord
100
AcDbBlockTableRecord
  2
*D1
340
0
  0
BLOCK_RECORD
  5
5CB
330
1
100
AcDbSymbolTableRecord
100
AcDbBlockTableRecord
  2
*D2
340
0
  0
BLOCK_RECORD
  5
5D6
330
1
100
AcDbSymbolTableRecord
100
AcDbBlockTableRecord
  2
*D3
340
0
  0
ENDTAB
  0
ENDSEC
  0
SECTION
  2
BLOCKS
  0
BLOCK
  5
20
330
1F
100
AcDbEntity
  8
0
100
AcDbBlockBegin
  2
*Model_Space
 70
     0
 10
0.0
 20
0.0
 30
0.0
  3
*Model_Space
  1

  0
ENDBLK
  5
21
330
1F
100
AcDbEntity
  8
0
100
AcDbBlockEnd
  0
BLOCK
  5
1C
330
1B
100
AcDbEntity
 67
     1
  8
0
100
AcDbBlockBegin
  2
*Paper_Space
 70
     0
 10
0.0
 20
0.0
 30
0.0
  3
*Paper_Space
  1

  0
ENDBLK
  5
1D
330
1B
100
AcDbEntity
 67
     1
  8
0
100
AcDbBlockEnd
  0
BLOCK
  5
24
330
23
100
AcDbEntity
  8
0
100
AcDbBlockBegin
  2
*Paper_Space0
 70
     0
 10
0.0
 20
0.0
 30
0.0
  3
*Paper_Space0
  1

  0
ENDBLK
  5
25
330
23
100
AcDbEntity
  8
0
100
AcDbBlockEnd
  0
BLOCK
  5
5C7
330
5C0
100
AcDbEntity
  8
0
100
AcDbBlockBegin
  2
*D1
 70
     1
 10
0.0
 20
0.0
 30
0.0
  3
*D1
  1

  0
LINE
  5
5C1
330
5C0
100
AcDbEntity
  8
1
  6
Continuous
 62
     2
100
AcDbLine
 10
179.994540978616
 20
174.2997289057429
 30
0.0
 11
179.994540978616
 21
140.7997289057427
 31
0.0
  0
LINE
  5
5C2
330
5C0
100
AcDbEntity
  8
1
  6
Continuous
 62
     2
100
AcDbLine
 10
166.4000000000001
 20
140.7997289057427
 30
0.0
 11
180.994540978616
 21
140.7997289057427
 31
0.0
  0
LINE
  5
5C3
330
5C0
100
AcDbEntity
  8
1
  6
Continuous
 62
     2
100
AcDbLine
 10
168.4000000000001
 20
174.2997289057429
 30
0.0
 11
180.994540978616
 21
174.2997289057429
 31
0.0
  0
SOLID
  5
5C4
330
5C0
100
AcDbEntity
  8
1
 62
     2
100
AcDbTrace
 10
180.3894984713782
 20
171.2997289057429
 30
0.0
 11
179.5995834858538
 21
171.2997289057429
 31
0.0
 12
179.994540978616
 22
174.2997289057429
 32
0.0
 13
179.994540978616
 23
174.2997289057429
 33
0.0
  0
SOLID
  5
5C5
330
5C0
100
AcDbEntity
  8
1
 62
     2
100
AcDbTrace
 10
179.5995834858538
 20
143.7997289057427
 30
0.0
 11
180.3894984713782
 21
143.7997289057427
 31
0.0
 12
179.994540978616
 22
140.7997289057427
 32
0.0
 13
179.994540978616
 23
140.7997289057427
 33
0.0
  0
MTEXT
  5
5C6
330
5C0
100
AcDbEntity
  8
1
 62
     4
100
AcDbMText
 10
177.694540978616
 20
153.4247289057427
 30
0.0
 40
3.0
 41
0.0
 71
     7
 72
     1
  1
33,5
  7
CONVERTER_12
 11
0.0
 21
1.0
 31
0.0
 73
     1
 44
0.60024009603842
  0
ENDBLK
  5
5C8
330
5C0
100
AcDbEntity
  8
0
100
AcDbBlockEnd
  0
BLOCK
  5
5D2
330
5CB
100
AcDbEntity
  8
0
100
AcDbBlockBegin
  2
*D2
 70
     1
 10
0.0
 20
0.0
 30
0.0
  3
*D2
  1

  0
LINE
  5
5CC
330
5CB
100
AcDbEntity
  8
1
  6
Continuous
 62
     2
100
AcDbLine
 10
135.9
 20
185.131527014503
 30
0.0
 11
165.9000000000002
 21
185.131527014503
 31
0.0
  0
LINE
  5
5CD
330
5CB
100
AcDbEntity
  8
1
  6
Continuous
 62
     2
100
AcDbLine
 10
165.9000000000002
 20
174.7997289057427
 30
0.0
 11
165.9000000000002
 21
186.131527014503
 31
0.0
  0
LINE
  5
5CE
330
5CB
100
AcDbEntity
  8
1
  6
Continuous
 62
     2
100
AcDbLine
 10
135.9
 20
174.7997289057427
 30
0.0
 11
135.9
 21
186.131527014503
 31
0.0
  0
SOLID
  5
5CF
330
5CB
100
AcDbEntity
  8
1
 62
     2
100
AcDbTrace
 10
138.9
 20
185.5264845072652
 30
0.0
 11
138.9
 21
184.7365695217408
 31
0.0
 12
135.9
 22
185.131527014503
 32
0.0
 13
135.9
 23
185.131527014503
 33
0.0
  0
SOLID
  5
5D0
330
5CB
100
AcDbEntity
  8
1
 62
     2
100
AcDbTrace
 10
162.9000000000002
 20
184.7365695217408
 30
0.0
 11
162.9000000000002
 21
185.5264845072652
 31
0.0
 12
165.9000000000002
 22
185.131527014503
 32
0.0
 13
165.9000000000002
 23
185.131527014503
 33
0.0
  0
MTEXT
  5
5D1
330
5CB
100
AcDbEntity
  8
1
 62
     4
100
AcDbMText
 10
148.6500000000001
 20
187.131527014503
 30
0.0
 40
3.0
 41
0.0
 71
     7
 72
     1
  1
30
  7
CONVERTER_12
 11
0.9999999999970619
 21
2.424068405545306E-6
 31
0.0
 73
     1
 44
0.60024009603842
  0
ENDBLK
  5
5D3
330
5CB
100
AcDbEntity
  8
0
100
AcDbBlockEnd
  0
BLOCK
  5
5DD
330
5D6
100
AcDbEntity
  8
0
100
AcDbBlockBegin
  2
*D3
 70
     1
 10
0.0
 20
0.0
 30
0.0
  3
*D3
  1

  0
LINE
  5
5D7
330
5D6
100
AcDbEntity
  8
1
  6
Continuous
 62
     2
100
AcDbLine
 10
107.0000000000002
 20
185.153826783624
 30
0.0
 11
62.90000000000012
 21
185.153826783624
 31
0.0
  0
LINE
  5
5D8
330
5D6
100
AcDbEntity
  8
1
  6
Continuous
 62
     2
100
AcDbLine
 10
62.90000000000012
 20
174.7997289057427
 30
0.0
 11
62.90000000000012
 21
186.153826783624
 31
0.0
  0
LINE
  5
5D9
330
5D6
100
AcDbEntity
  8
1
  6
Continuous
 62
     2
100
AcDbLine
 10
107.0000000000002
 20
174.7997289057427
 30
0.0
 11
107.0000000000002
 21
186.153826783624
 31
0.0
  0
SOLID
  5
5DA
330
5D6
100
AcDbEntity
  8
1
 62
     2
100
AcDbTrace
 10
104.0000000000002
 20
184.7588692908618
 30
0.0
 11
104.0000000000002
 21
185.5487842763862
 31
0.0
 12
107.0000000000002
 22
185.153826783624
 32
0.0
 13
107.0000000000002
 23
185.153826783624
 33
0.0
  0
SOLID
  5
5DB
330
5D6
100
AcDbEntity
  8
1
 62
     2
100
AcDbTrace
 10
65.90000000000012
 20
185.5487842763862
 30
0.0
 11
65.90000000000012
 21
184.7588692908618
 31
0.0
 12
62.90000000000012
 22
185.153826783624
 32
0.0
 13
62.90000000000012
 23
185.153826783624
 33
0.0
  0
MTEXT
  5
5DC
330
5D6
100
AcDbEntity
  8
1
 62
     4
100
AcDbMText
 10
81.27500000000016
 20
187.453826783624
 30
0.0
 40
3.0
 41
0.0
 71
     7
 72
     1
  1
44,1
  7
CONVERTER_12
 11
0.9999999999970619
 21
2.424068405545306E-6
 31
0.0
 73
     1
 44
0.60024009603842
  0
ENDBLK
  5
5DE
330
5D6
100
AcDbEntity
  8
0
100
AcDbBlockEnd
  0
ENDSEC
  0
SECTION
  2
ENTITIES
  0
LINE
  5
47
330
1F
100
AcDbEntity
  8
1
  6
Continuous
 62
     7
100
AcDbLine
 10
0.0
 20
0.0
 30
0.0
 11
0.0
 21
297.0000000000001
 31
0.0
  0
LINE
  5
48
330
1F
100
AcDbEntity
  8
1
  6
Continuous
 62
     7
100
AcDbLine
 10
21.00000000000009
 20
5.0
 30
0.0
 11
205.0000000000001
 21
4.99999999999989
 31
0.0
  0
LINE
  5
49
330
1F
100
AcDbEntity
  8
1
  6
Continuous
 62
     7
100
AcDbLine
 10
21.00000000000011
 20
20.0
 30
0.0
 11
21.00000000000009
 21
5.0
 31
0.0
  0
LINE
  5
4A
330
1F
100
AcDbEntity
  8
1
  6
Continuous
 62
     7
100
AcDbLine
 10
161.0000000000001
 20
20.0
 30
0.0
 11
161.0000000000001
 21
5.0
 31
0.0
  0
LINE
  5
4B
102
{ACAD_REACTORS
330
5E2
102
}
330
1F
100
AcDbEntity
  8
1
  6
Continuous
 62
     7
100
AcDbLine
 10
194.0096340220762
 20
10.07749983983263
 30
0.0
 11
194.0096340220762
 21
14.92250016016737
 31
0.0
  0
LINE
  5
4C
102
{ACAD_REACTORS
330
5E2
102
}
330
1F
100
AcDbEntity
  8
1
  6
Continuous
 62
     7
100
AcDbLine
 10
195.8428748399059
 20
10.55800208038033
 30
0.0
 11
194.5095415065727
 21
9.78877131114973
 31
0.0
  0
LINE
  5
4D
102
{ACAD_REACTORS
330
5E2
102
}
330
1F
100
AcDbEntity
  8
1
  6
Continuous
 62
     7
100
AcDbLine
 10
194.6763006887428
 20
10.65463653264794
 30
0.0
 11
195.5097265375796
 21
11.13545913774624
 31
0.0
  0
LINE
  5
4E
102
{ACAD_REACTORS
330
5E2
102
}
330
1F
100
AcDbEntity
  8
1
  6
Continuous
 62
     7
100
AcDbLine
 10
194.6763006887428
 20
12.16666666666663
 30
0.0
 11
194.6763006887428
 21
10.65463653264794
 31
0.0
  0
LINE
  5
4F
102
{ACAD_REACTORS
330
5E2
102
}
330
1F
100
AcDbEntity
  8
1
  6
Continuous
 62
     7
100
AcDbLine
 10
195.6763006887428
 20
12.16666666666663
 30
0.0
 11
194.6763006887428
 21
12.16666666666663
 31
0.0
  0
LINE
  5
50
102
{ACAD_REACTORS
330
5E2
102
}
330
1F
100
AcDbEntity
  8
1
  6
Continuous
 62
     7
100
AcDbLine
 10
194.6763006887428
 20
12.83333333333326
 30
0.0
 11
195.6763006887428
 21
12.83333333333326
 31
0.0
  0
LINE
  5
51
102
{ACAD_REACTORS
330
5E2
102
}
330
1F
100
AcDbEntity
  8
1
  6
Continuous
 62
     7
100
AcDbLine
 10
194.6763006887428
 20
14.34536346735195
 30
0.0
 11
194.6763006887428
 21
12.83333333333326
 31
0.0
  0
LINE
  5
52
102
{ACAD_REACTORS
330
5E2
102
}
330
1F
100
AcDbEntity
  8
1
  6
Continuous
 62
     7
100
AcDbLine
 10
195.5097265375796
 20
13.86454086225376
 30
0.0
 11
194.6763006887428
 21
14.34536346735195
 31
0.0
  0
LINE
  5
53
102
{ACAD_REACTORS
330
5E2
102
}
330
1F
100
AcDbEntity
  8
1
  6
Continuous
 62
     7
100
AcDbLine
 10
194.5095415065727
 20
15.21122868885027
 30
0.0
 11
195.8428748399059
 21
14.44199791961944
 31
0.0
  0
LINE
  5
54
102
{ACAD_REACTORS
330
5E3
102
}
330
1F
100
AcDbEntity
  8
1
  6
Continuous
 62
     7
100
AcDbLine
 10
187.3429673554094
 20
10.84673060906323
 30
0.0
 11
187.3429673554094
 21
14.15326939093666
 31
0.0
  0
LINE
  5
55
102
{ACAD_REACTORS
330
5E3
102
}
330
1F
100
AcDbEntity
  8
1
  6
Continuous
 62
     7
100
AcDbLine
 10
188.0096340220761
 20
11.0392519172633
 30
0.0
 11
188.0096340220761
 21
10.84673060906323
 31
0.0
  0
LINE
  5
56
102
{ACAD_REACTORS
330
5E3
102
}
330
1F
100
AcDbEntity
  8
1
  6
Continuous
 62
     7
100
AcDbLine
 10
188.0096340220761
 20
14.15326939093666
 30
0.0
 11
188.0096340220761
 21
11.0392519172633
 31
0.0
  0
LINE
  5
57
102
{ACAD_REACTORS
330
5E4
102
}
330
1F
100
AcDbEntity
  8
1
  6
Continuous
 62
     7
100
AcDbLine
 10
191.1763932042462
 20
8.44261746499581
 30
0.0
 11
189.0098190530831
 21
9.69256409066691
 31
0.0
  0
LINE
  5
58
102
{ACAD_REACTORS
330
5E4
102
}
330
1F
100
AcDbEntity
  8
1
  6
Continuous
 62
     7
100
AcDbLine
 10
189.3429673554094
 20
10.2700211480327
 30
0.0
 11
191.5095415065727
 21
9.0200745223616
 31
0.0
  0
LINE
  5
59
102
{ACAD_REACTORS
330
5E4
102
}
330
1F
100
AcDbEntity
  8
1
  6
Continuous
 62
     7
100
AcDbLine
 10
189.3429673554094
 20
14.92250016016737
 30
0.0
 11
189.3429673554094
 21
10.2700211480327
 31
0.0
  0
LINE
  5
5A
102
{ACAD_REACTORS
330
5E4
102
}
330
1F
100
AcDbEntity
  8
1
  6
Continuous
 62
     7
100
AcDbLine
 10
188.6763006887428
 20
10.27002114803258
 30
0.0
 11
188.6763006887428
 21
14.92250016016737
 31
0.0
  0
LINE
  5
5B
102
{ACAD_REACTORS
330
5E1
102
}
330
1F
100
AcDbEntity
  8
1
  6
Continuous
 62
     7
100
AcDbLine
 10
192.8485336717861
 20
15.86370041827229
 30
0.0
 11
191.6763006887428
 21
13.83333333333326
 31
0.0
  0
LINE
  5
5C
102
{ACAD_REACTORS
330
5E1
102
}
330
1F
100
AcDbEntity
  8
1
  6
Continuous
 62
     7
100
AcDbLine
 10
193.3429673554094
 20
9.3082690706018
 30
0.0
 11
193.3429673554094
 21
15.73121731203457
 31
0.0
  0
LINE
  5
5D
102
{ACAD_REACTORS
330
5E1
102
}
330
1F
100
AcDbEntity
  8
1
  6
Continuous
 62
     7
100
AcDbLine
 10
192.6763006887428
 20
12.5
 30
0.0
 11
192.6763006887428
 21
9.3082690706018
 31
0.0
  0
LINE
  5
5E
102
{ACAD_REACTORS
330
5E1
102
}
330
1F
100
AcDbEntity
  8
1
  6
Continuous
 62
     7
100
AcDbLine
 10
190.6763006887428
 20
10.84758507263291
 30
0.0
 11
190.6763006887428
 21
12.5
 31
0.0
  0
LINE
  5
5F
102
{ACAD_REACTORS
330
5E1
102
}
330
1F
100
AcDbEntity
  8
1
  6
Continuous
 62
     7
100
AcDbLine
 10
190.0096340220761
 20
12.5
 30
0.0
 11
190.0096340220761
 21
10.84758507263291
 31
0.0
  0
LINE
  5
60
102
{ACAD_REACTORS
330
5E1
102
}
330
1F
100
AcDbEntity
  8
1
  6
Continuous
 62
     7
100
AcDbLine
 10
190.5040677056995
 20
15.86370041827229
 30
0.0
 11
191.6763006887428
 21
13.83333333333326
 31
0.0
  0
LINE
  5
61
102
{ACAD_REACTORS
330
5E1
102
}
330
1F
100
AcDbEntity
  8
1
  6
Continuous
 62
     7
100
AcDbLine
 10
190.0096340220761
 20
12.5
 30
0.0
 11
190.0096340220761
 21
15.73121731203457
 31
0.0
  0
LINE
  5
62
330
1F
100
AcDbEntity
  8
1
  6
Continuous
 62
     7
100
AcDbLine
 10
191.6763006887428
 20
7.5
 30
0.0
 11
183.2598654136012
 21
12.35563573565855
 31
0.0
  0
LINE
  5
63
330
1F
100
AcDbEntity
  8
1
  6
Continuous
 62
     7
100
AcDbLine
 10
200.0927359638843
 20
12.35563573565855
 30
0.0
 11
191.6763006887428
 21
7.5
 31
0.0
  0
LINE
  5
64
330
1F
100
AcDbEntity
  8
1
  6
Continuous
 62
     7
100
AcDbLine
 10
191.6763006887428
 20
17.5
 30
0.0
 11
200.0927359638843
 21
12.64436426434133
 31
0.0
  0
LINE
  5
65
330
1F
100
AcDbEntity
  8
1
  6
Continuous
 62
     7
100
AcDbLine
 10
183.2598654136012
 20
12.64436426434133
 30
0.0
 11
191.6763006887428
 21
17.5
 31
0.0
  0
LINE
  5
66
102
{ACAD_REACTORS
330
5E1
102
}
330
1F
100
AcDbEntity
  8
1
  6
Continuous
 62
     7
100
AcDbLine
 10
190.6763006887428
 20
14.23205080756884
 30
0.0
 11
190.6763006887428
 21
12.5
 31
0.0
  0
LINE
  5
67
102
{ACAD_REACTORS
330
5E1
102
}
330
1F
100
AcDbEntity
  8
1
  6
Continuous
 62
     7
100
AcDbLine
 10
191.5319631214453
 20
12.75
 30
0.0
 11
190.6763006887428
 21
14.23205080756884
 31
0.0
  0
LINE
  5
68
102
{ACAD_REACTORS
330
5E1
102
}
330
1F
100
AcDbEntity
  8
1
  6
Continuous
 62
     7
100
AcDbLine
 10
192.6763006887428
 20
14.23205080756884
 30
0.0
 11
191.8206382560402
 21
12.75
 31
0.0
  0
LINE
  5
69
102
{ACAD_REACTORS
330
5E1
102
}
330
1F
100
AcDbEntity
  8
1
  6
Continuous
 62
     7
100
AcDbLine
 10
192.6763006887428
 20
12.5
 30
0.0
 11
192.6763006887428
 21
14.23205080756884
 31
0.0
  0
LINE
  5
6A
330
1F
100
AcDbEntity
  8
1
  6
Continuous
 62
     7
100
AcDbLine
 10
178.3526013774855
 20
20.0
 30
0.0
 11
178.3526013774855
 21
5.0
 31
0.0
  0
LINE
  5
6B
330
1F
100
AcDbEntity
  8
1
  6
Continuous
 62
     7
100
AcDbLine
 10
21.00000000000011
 20
20.0
 30
0.0
 11
205.0000000000001
 21
20.0
 31
0.0
  0
LINE
  5
6C
330
1F
100
AcDbEntity
  8
1
  6
Continuous
 62
     7
100
AcDbLine
 10
51.00000000000011
 20
20.0
 30
0.0
 11
51.00000000000011
 21
5.0
 31
0.0
  0
LINE
  5
6D
330
1F
100
AcDbEntity
  8
1
  6
Continuous
 62
     7
100
AcDbLine
 10
21.00000000000011
 20
12.5
 30
0.0
 11
51.00000000000011
 21
12.5
 31
0.0
  0
LINE
  5
6E
330
1F
100
AcDbEntity
  8
1
  6
Continuous
 62
     7
100
AcDbLine
 10
0.0
 20
148.4999999999998
 30
0.0
 11
15.0
 21
148.4999999999998
 31
0.0
  0
LINE
  5
6F
330
1F
100
AcDbEntity
  8
1
  6
Continuous
 62
     7
100
AcDbLine
 10
210.0000000000001
 20
0.0
 30
0.0
 11
210.0000000000001
 21
297.0000000000001
 31
0.0
  0
LINE
  5
70
330
1F
100
AcDbEntity
  8
1
  6
Continuous
 62
     7
100
AcDbLine
 10
0.0
 20
0.0
 30
0.0
 11
210.0000000000001
 21
0.0
 31
0.0
  0
LINE
  5
71
330
1F
100
AcDbEntity
  8
1
  6
Continuous
 62
     7
100
AcDbLine
 10
0.0
 20
297.0000000000001
 30
0.0
 11
0.0
 21
0.0
 31
0.0
  0
LINE
  5
72
330
1F
100
AcDbEntity
  8
1
  6
Continuous
 62
     7
100
AcDbLine
 10
210.0000000000001
 20
297.0000000000001
 30
0.0
 11
0.0
 21
297.0000000000001
 31
0.0
  0
LINE
  5
73
330
1F
100
AcDbEntity
  8
1
  6
Continuous
 62
     7
100
AcDbLine
 10
205.0000000000001
 20
4.99999999999989
 30
0.0
 11
205.0000000000001
 21
292.0000000000001
 31
0.0
  0
LINE
  5
74
330
1F
100
AcDbEntity
  8
1
  6
Continuous
 62
     7
100
AcDbLine
 10
205.0000000000001
 20
292.0000000000001
 30
0.0
 11
21.00000000000011
 21
292.0000000000001
 31
0.0
  0
LINE
  5
75
330
1F
100
AcDbEntity
  8
1
  6
Continuous
 62
     7
100
AcDbLine
 10
21.00000000000011
 20
292.0000000000001
 30
0.0
 11
21.00000000000009
 21
5.0
 31
0.0
  0
LINE
  5
76
330
1F
100
AcDbEntity
  8
1
  6
Continuous
 62
     7
100
AcDbLine
 10
21.00000000000009
 20
40.0
 30
0.0
 11
21.00000000000009
 21
5.0
 31
0.0
  0
LINE
  5
77
330
1F
100
AcDbEntity
  8
1
  6
Continuous
 62
     7
100
AcDbLine
 10
21.00000000000009
 20
25.0
 30
0.0
 11
205.0000000000001
 21
25.0
 31
0.0
  0
LINE
  5
78
330
1F
100
AcDbEntity
  8
1
  6
Continuous
 62
     7
100
AcDbLine
 10
28.00000000000009
 20
20.0
 30
0.0
 11
28.00000000000009
 21
25.0
 31
0.0
  0
LINE
  5
79
330
1F
100
AcDbEntity
  8
1
  6
Continuous
 62
     7
100
AcDbLine
 10
46.0000000000002
 20
20.0
 30
0.0
 11
46.0000000000002
 21
25.0
 31
0.0
  0
LINE
  5
7A
330
1F
100
AcDbEntity
  8
1
  6
Continuous
 62
     7
100
AcDbLine
 10
21.00000000000009
 20
30.0
 30
0.0
 11
205.0000000000001
 21
30.0
 31
0.0
  0
LINE
  5
7B
330
1F
100
AcDbEntity
  8
1
  6
Continuous
 62
     7
100
AcDbLine
 10
28.00000000000009
 20
25.0
 30
0.0
 11
28.00000000000009
 21
30.0
 31
0.0
  0
LINE
  5
7C
330
1F
100
AcDbEntity
  8
1
  6
Continuous
 62
     7
100
AcDbLine
 10
46.0000000000002
 20
25.0
 30
0.0
 11
46.0000000000002
 21
30.0
 31
0.0
  0
LINE
  5
7D
330
1F
100
AcDbEntity
  8
1
  6
Continuous
 62
     7
100
AcDbLine
 10
21.00000000000009
 20
35.0
 30
0.0
 11
205.0000000000001
 21
35.0
 31
0.0
  0
LINE
  5
7E
330
1F
100
AcDbEntity
  8
1
  6
Continuous
 62
     7
100
AcDbLine
 10
28.00000000000009
 20
30.0
 30
0.0
 11
28.00000000000009
 21
35.0
 31
0.0
  0
LINE
  5
7F
330
1F
100
AcDbEntity
  8
1
  6
Continuous
 62
     7
100
AcDbLine
 10
46.0000000000002
 20
30.0
 30
0.0
 11
46.0000000000002
 21
35.0
 31
0.0
  0
LINE
  5
80
330
1F
100
AcDbEntity
  8
1
  6
Continuous
 62
     7
100
AcDbLine
 10
21.00000000000009
 20
40.0
 30
0.0
 11
205.0000000000001
 21
40.0
 31
0.0
  0
LINE
  5
81
330
1F
100
AcDbEntity
  8
1
  6
Continuous
 62
     7
100
AcDbLine
 10
28.00000000000009
 20
35.0
 30
0.0
 11
28.00000000000009
 21
40.0
 31
0.0
  0
LINE
  5
82
330
1F
100
AcDbEntity
  8
1
  6
Continuous
 62
     7
100
AcDbLine
 10
46.0000000000002
 20
35.0
 30
0.0
 11
46.0000000000002
 21
40.0
 31
0.0
  0
LINE
  5
83
330
1F
100
AcDbEntity
  8
0
  6
Continuous
 62
     7
100
AcDbLine
 10
142.9000000000001
 20
174.2997289057427
 30
0.0
 11
158.9000000000001
 21
174.2997289057427
 31
0.0
  0
LINE
  5
84
330
1F
100
AcDbEntity
  8
0
  6
Continuous
 62
     7
100
AcDbLine
 10
165.9000000000001
 20
140.7997289057426
 30
0.0
 11
135.9000000000001
 21
140.7997289057427
 31
0.0
  0
LINE
  5
85
330
1F
100
AcDbEntity
  8
0
  6
Continuous
 62
     7
100
AcDbLine
 10
142.7080396371083
 20
174.2997289057427
 30
0.0
 11
142.7259627408518
 21
174.2997289057427
 31
0.0
  0
LINE
  5
86
330
1F
100
AcDbEntity
  8
0
  6
Continuous
 62
     7
100
AcDbLine
 10
135.9000000000001
 20
140.7997289057427
 30
0.0
 11
135.9000000000001
 21
157.2997289057427
 31
0.0
  0
LINE
  5
87
330
1F
100
AcDbEntity
  8
0
  6
Continuous
 62
     7
100
AcDbLine
 10
167.9000000000001
 20
174.2997289057427
 30
0.0
 11
167.9000000000001
 21
171.7997289057427
 31
0.0
  0
LINE
  5
88
330
1F
100
AcDbEntity
  8
0
  6
Continuous
 62
     7
100
AcDbLine
 10
165.9000000000002
 20
174.2997289057427
 30
0.0
 11
167.9000000000001
 21
174.2997289057427
 31
0.0
  0
LINE
  5
89
330
1F
100
AcDbEntity
  8
0
  6
Continuous
 62
     7
100
AcDbLine
 10
162.1500000000001
 20
164.7997289057427
 30
0.0
 11
162.1500000000001
 21
174.2997289057427
 31
0.0
  0
LINE
  5
8A
330
1F
100
AcDbEntity
  8
0
  6
Continuous
 62
     7
100
AcDbLine
 10
159.6500000000001
 20
174.2997289057427
 30
0.0
 11
162.1500000000001
 21
174.2997289057427
 31
0.0
  0
LINE
  5
8B
330
1F
100
AcDbEntity
  8
0
  6
Continuous
 62
     7
100
AcDbLine
 10
162.1500000000001
 20
174.2997289057427
 30
0.0
 11
162.3737172627571
 21
174.2997289057427
 31
0.0
  0
LINE
  5
8C
330
1F
100
AcDbEntity
  8
0
  6
Continuous
 62
     7
100
AcDbLine
 10
159.4262827372432
 20
174.2997289057427
 30
0.0
 11
159.2737172627571
 21
174.2997289057427
 31
0.0
  0
LINE
  5
8D
330
1F
100
AcDbEntity
  8
0
  6
Continuous
 62
     7
100
AcDbLine
 10
159.6500000000001
 20
174.2997289057427
 30
0.0
 11
159.4262827372432
 21
174.2997289057427
 31
0.0
  0
LINE
  5
8E
330
1F
100
AcDbEntity
  8
0
  6
Continuous
 62
     7
100
AcDbLine
 10
162.5262827372432
 20
174.2997289057427
 30
0.0
 11
162.3737172627571
 21
174.2997289057427
 31
0.0
  0
LINE
  5
8F
330
1F
100
AcDbEntity
  8
0
  6
Continuous
 62
     7
100
AcDbLine
 10
162.7080396371083
 20
174.2997289057427
 30
0.0
 11
162.7259627408519
 21
174.2997289057427
 31
0.0
  0
LINE
  5
90
330
1F
100
AcDbEntity
  8
0
  6
Continuous
 62
     7
100
AcDbLine
 10
162.9000000000001
 20
174.2997289057427
 30
0.0
 11
162.7259627408519
 21
174.2997289057427
 31
0.0
  0
LINE
  5
91
330
1F
100
AcDbEntity
  8
0
  6
Continuous
 62
     7
100
AcDbLine
 10
162.9000000000001
 20
164.7997289057427
 30
0.0
 11
162.9000000000001
 21
174.2997289057427
 31
0.0
  0
LINE
  5
92
330
1F
100
AcDbEntity
  8
0
  6
Continuous
 62
     7
100
AcDbLine
 10
163.9000000000001
 20
174.2997289057427
 30
0.0
 11
162.9000000000001
 21
174.2997289057427
 31
0.0
  0
LINE
  5
93
330
1F
100
AcDbEntity
  8
0
  6
Continuous
 62
     7
100
AcDbLine
 10
163.9000000000001
 20
174.2997289057427
 30
0.0
 11
163.9000000000001
 21
157.2997289057427
 31
0.0
  0
LINE
  5
94
330
1F
100
AcDbEntity
  8
0
  6
Continuous
 62
     7
100
AcDbLine
 10
159.6500000000001
 20
174.2997289057427
 30
0.0
 11
159.6500000000001
 21
164.7997289057427
 31
0.0
  0
LINE
  5
95
330
1F
100
AcDbEntity
  8
0
  6
Continuous
 62
     7
100
AcDbLine
 10
159.0740372591484
 20
174.2997289057427
 30
0.0
 11
159.0919603628919
 21
174.2997289057427
 31
0.0
  0
LINE
  5
96
330
1F
100
AcDbEntity
  8
0
  6
Continuous
 62
     7
100
AcDbLine
 10
159.2737172627571
 20
174.2997289057427
 30
0.0
 11
159.0919603628919
 21
174.2997289057427
 31
0.0
  0
LINE
  5
97
330
1F
100
AcDbEntity
  8
0
  6
Continuous
 62
     7
100
AcDbLine
 10
158.9000000000001
 20
174.2997289057427
 30
0.0
 11
159.0740372591484
 21
174.2997289057427
 31
0.0
  0
LINE
  5
98
330
1F
100
AcDbEntity
  8
0
  6
Continuous
 62
     7
100
AcDbLine
 10
158.9000000000001
 20
174.2997289057427
 30
0.0
 11
158.9000000000001
 21
164.7997289057427
 31
0.0
  0
LINE
  5
99
330
1F
100
AcDbEntity
  8
0
  6
Continuous
 62
     7
100
AcDbLine
 10
162.5262827372432
 20
174.2997289057427
 30
0.0
 11
162.7080396371083
 21
174.2997289057427
 31
0.0
  0
LINE
  5
9A
330
1F
100
AcDbEntity
  8
0
  6
Continuous
 62
     7
100
AcDbLine
 10
165.9000000000002
 20
174.2997289057427
 30
0.0
 11
165.9000000000001
 21
157.2997289057427
 31
0.0
  0
LINE
  5
9B
330
1F
100
AcDbEntity
  8
0
  6
Continuous
 62
     7
100
AcDbLine
 10
163.9000000000001
 20
174.2997289057427
 30
0.0
 11
165.9000000000002
 21
174.2997289057427
 31
0.0
  0
LINE
  5
9C
330
1F
100
AcDbEntity
  8
0
  6
Continuous
 62
     7
100
AcDbLine
 10
167.9000000000001
 20
171.2997289057427
 30
0.0
 11
165.9000000000002
 21
171.2997289057427
 31
0.0
  0
LINE
  5
9D
330
1F
100
AcDbEntity
  8
0
  6
Continuous
 62
     7
100
AcDbLine
 10
167.9000000000001
 20
171.2997289057427
 30
0.0
 11
167.9000000000001
 21
171.7997289057427
 31
0.0
  0
LINE
  5
9E
330
1F
100
AcDbEntity
  8
0
  6
Continuous
 62
     7
100
AcDbLine
 10
165.9000000000001
 20
157.2997289057427
 30
0.0
 11
163.9000000000001
 21
157.2997289057427
 31
0.0
  0
LINE
  5
9F
330
1F
100
AcDbEntity
  8
0
  6
Continuous
 62
     7
100
AcDbLine
 10
165.9000000000001
 20
157.2997289057427
 30
0.0
 11
165.9000000000001
 21
140.7997289057426
 31
0.0
  0
LINE
  5
A0
330
1F
100
AcDbEntity
  8
0
  6
Continuous
 62
     7
100
AcDbLine
 10
138.9000000000001
 20
174.2997289057427
 30
0.0
 11
137.9000000000001
 21
174.2997289057427
 31
0.0
  0
LINE
  5
A1
330
1F
100
AcDbEntity
  8
0
  6
Continuous
 62
     7
100
AcDbLine
 10
138.9000000000001
 20
174.2997289057427
 30
0.0
 11
138.9000000000001
 21
164.7997289057427
 31
0.0
  0
LINE
  5
A2
330
1F
100
AcDbEntity
  8
0
  6
Continuous
 62
     7
100
AcDbLine
 10
138.9000000000001
 20
174.2997289057427
 30
0.0
 11
139.0740372591484
 21
174.2997289057427
 31
0.0
  0
LINE
  5
A3
330
1F
100
AcDbEntity
  8
0
  6
Continuous
 62
     7
100
AcDbLine
 10
139.0740372591484
 20
174.2997289057427
 30
0.0
 11
139.0919603628919
 21
174.2997289057427
 31
0.0
  0
LINE
  5
A4
330
1F
100
AcDbEntity
  8
0
  6
Continuous
 62
     7
100
AcDbLine
 10
139.4262827372432
 20
174.2997289057427
 30
0.0
 11
139.2737172627571
 21
174.2997289057427
 31
0.0
  0
LINE
  5
A5
330
1F
100
AcDbEntity
  8
0
  6
Continuous
 62
     7
100
AcDbLine
 10
139.2737172627571
 20
174.2997289057427
 30
0.0
 11
139.0919603628919
 21
174.2997289057427
 31
0.0
  0
LINE
  5
A6
330
1F
100
AcDbEntity
  8
0
  6
Continuous
 62
     7
100
AcDbLine
 10
142.1500000000001
 20
164.7997289057427
 30
0.0
 11
142.1500000000001
 21
174.2997289057427
 31
0.0
  0
LINE
  5
A7
330
1F
100
AcDbEntity
  8
0
  6
Continuous
 62
     7
100
AcDbLine
 10
142.5262827372432
 20
174.2997289057427
 30
0.0
 11
142.373717262757
 21
174.2997289057427
 31
0.0
  0
LINE
  5
A8
330
1F
100
AcDbEntity
  8
0
  6
Continuous
 62
     7
100
AcDbLine
 10
142.5262827372432
 20
174.2997289057427
 30
0.0
 11
142.7080396371083
 21
174.2997289057427
 31
0.0
  0
LINE
  5
A9
330
1F
100
AcDbEntity
  8
0
  6
Continuous
 62
     7
100
AcDbLine
 10
142.9000000000001
 20
174.2997289057427
 30
0.0
 11
142.7259627408518
 21
174.2997289057427
 31
0.0
  0
LINE
  5
AA
330
1F
100
AcDbEntity
  8
0
  6
Continuous
 62
     7
100
AcDbLine
 10
142.1500000000001
 20
174.2997289057427
 30
0.0
 11
142.373717262757
 21
174.2997289057427
 31
0.0
  0
LINE
  5
AB
330
1F
100
AcDbEntity
  8
0
  6
Continuous
 62
     7
100
AcDbLine
 10
139.6500000000001
 20
174.2997289057427
 30
0.0
 11
139.6500000000001
 21
164.7997289057427
 31
0.0
  0
LINE
  5
AC
330
1F
100
AcDbEntity
  8
0
  6
Continuous
 62
     7
100
AcDbLine
 10
142.9000000000001
 20
164.7997289057427
 30
0.0
 11
142.9000000000001
 21
174.2997289057427
 31
0.0
  0
LINE
  5
AD
330
1F
100
AcDbEntity
  8
0
  6
Continuous
 62
     7
100
AcDbLine
 10
137.9000000000001
 20
157.2997289057427
 30
0.0
 11
137.9000000000001
 21
174.2997289057427
 31
0.0
  0
LINE
  5
AE
330
1F
100
AcDbEntity
  8
0
  6
Continuous
 62
     7
100
AcDbLine
 10
139.6500000000001
 20
174.2997289057427
 30
0.0
 11
142.1500000000001
 21
174.2997289057427
 31
0.0
  0
LINE
  5
AF
330
1F
100
AcDbEntity
  8
0
  6
Continuous
 62
     7
100
AcDbLine
 10
139.4262827372432
 20
174.2997289057427
 30
0.0
 11
139.6500000000001
 21
174.2997289057427
 31
0.0
  0
LINE
  5
B0
330
1F
100
AcDbEntity
  8
0
  6
Continuous
 62
     7
100
AcDbLine
 10
135.9
 20
174.2997289057427
 30
0.0
 11
135.9000000000001
 21
157.2997289057427
 31
0.0
  0
LINE
  5
B1
330
1F
100
AcDbEntity
  8
0
  6
Continuous
 62
     7
100
AcDbLine
 10
135.9
 20
174.2997289057427
 30
0.0
 11
137.9000000000001
 21
174.2997289057427
 31
0.0
  0
LINE
  5
B2
330
1F
100
AcDbEntity
  8
0
  6
Continuous
 62
     7
100
AcDbLine
 10
133.9000000000001
 20
171.2997289057427
 30
0.0
 11
133.9000000000001
 21
171.7997289057427
 31
0.0
  0
LINE
  5
B3
330
1F
100
AcDbEntity
  8
0
  6
Continuous
 62
     7
100
AcDbLine
 10
133.9000000000001
 20
171.7997289057427
 30
0.0
 11
133.9000000000001
 21
174.2997289057427
 31
0.0
  0
LINE
  5
B4
330
1F
100
AcDbEntity
  8
0
  6
Continuous
 62
     7
100
AcDbLine
 10
135.9000000000001
 20
171.2997289057427
 30
0.0
 11
133.9000000000001
 21
171.2997289057427
 31
0.0
  0
LINE
  5
B5
330
1F
100
AcDbEntity
  8
0
  6
Continuous
 62
     7
100
AcDbLine
 10
133.9000000000001
 20
174.2997289057427
 30
0.0
 11
135.9
 21
174.2997289057427
 31
0.0
  0
LINE
  5
B6
330
1F
100
AcDbEntity
  8
0
  6
Continuous
 62
     7
100
AcDbLine
 10
137.9000000000001
 20
157.2997289057427
 30
0.0
 11
135.9000000000001
 21
157.2997289057427
 31
0.0
  0
LINE
  5
B7
330
1F
100
AcDbEntity
  8
0
  6
Continuous
 62
     7
100
AcDbLine
 10
62.90000000000012
 20
140.7997289057426
 30
0.0
 11
107.0000000000001
 21
140.7997289057426
 31
0.0
  0
LINE
  5
B8
330
1F
100
AcDbEntity
  8
0
  6
Continuous
 62
     7
100
AcDbLine
 10
62.90000000000012
 20
157.2997289057427
 30
0.0
 11
62.90000000000012
 21
140.7997289057426
 31
0.0
  0
LINE
  5
B9
330
1F
100
AcDbEntity
  8
0
  6
Continuous
 62
     7
100
AcDbLine
 10
81.85000000000016
 20
174.2997289057427
 30
0.0
 11
88.05000000000021
 21
174.2997289057427
 31
0.0
  0
LINE
  5
BA
330
1F
100
AcDbEntity
  8
0
  6
Continuous
 62
     7
100
AcDbLine
 10
87.55000000000021
 20
171.2997289057427
 30
0.0
 11
82.35000000000016
 21
171.2997289057427
 31
0.0
  0
LINE
  5
BB
330
1F
100
AcDbEntity
  8
0
  6
Continuous
 62
     7
100
AcDbLine
 10
75.60000000000016
 20
174.2997289057427
 30
0.0
 11
79.60000000000016
 21
174.2997289057427
 31
0.0
  0
LINE
  5
BC
330
1F
100
AcDbEntity
  8
0
  6
Continuous
 62
     7
100
AcDbLine
 10
107.0000000000002
 20
174.2997289057427
 30
0.0
 11
107.0000000000001
 21
157.2997289057427
 31
0.0
  0
LINE
  5
BD
330
1F
100
AcDbEntity
  8
0
  6
Continuous
 62
     7
100
AcDbLine
 10
62.90000000000012
 20
157.2997289057427
 30
0.0
 11
64.90000000000012
 21
157.2997289057427
 31
0.0
  0
LINE
  5
BE
330
1F
100
AcDbEntity
  8
0
  6
Continuous
 62
     7
100
AcDbLine
 10
62.90000000000012
 20
174.2997289057427
 30
0.0
 11
62.90000000000012
 21
157.2997289057427
 31
0.0
  0
LINE
  5
BF
330
1F
100
AcDbEntity
  8
0
  6
Continuous
 62
     7
100
AcDbLine
 10
64.90000000000012
 20
174.2997289057427
 30
0.0
 11
62.90000000000012
 21
174.2997289057427
 31
0.0
  0
LINE
  5
C0
330
1F
100
AcDbEntity
  8
0
  6
Continuous
 62
     7
100
AcDbLine
 10
64.90000000000012
 20
174.2997289057427
 30
0.0
 11
64.90000000000012
 21
157.2997289057427
 31
0.0
  0
LINE
  5
C1
330
1F
100
AcDbEntity
  8
0
  6
Continuous
 62
     7
100
AcDbLine
 10
67.15000000000012
 20
174.2997289057427
 30
0.0
 11
64.90000000000012
 21
174.2997289057427
 31
0.0
  0
LINE
  5
C2
330
1F
100
AcDbEntity
  8
0
  6
Continuous
 62
     7
100
AcDbLine
 10
67.15000000000012
 20
174.2997289057427
 30
0.0
 11
73.35000000000016
 21
174.2997289057427
 31
0.0
  0
LINE
  5
C3
330
1F
100
AcDbEntity
  8
0
  6
Continuous
 62
     7
100
AcDbLine
 10
72.85000000000016
 20
171.2997289057427
 30
0.0
 11
67.65000000000012
 21
171.2997289057427
 31
0.0
  0
LINE
  5
C4
330
1F
100
AcDbEntity
  8
0
  6
Continuous
 62
     7
100
AcDbLine
 10
67.15000000000012
 20
174.2997289057427
 30
0.0
 11
67.15000000000012
 21
171.7997289057427
 31
0.0
  0
LINE
  5
C5
330
1F
100
AcDbEntity
  8
0
  6
Continuous
 62
     7
100
AcDbLine
 10
73.35000000000016
 20
171.7997289057427
 30
0.0
 11
73.35000000000016
 21
174.2997289057427
 31
0.0
  0
LINE
  5
C6
330
1F
100
AcDbEntity
  8
0
  6
Continuous
 62
     7
100
AcDbLine
 10
107.6320508075691
 20
164.7997289057432
 30
0.0
 11
107.0000000000002
 21
164.7997289057427
 31
0.0
  0
LINE
  5
C7
330
1F
100
AcDbEntity
  8
0
  6
Continuous
 62
     7
100
AcDbLine
 10
107.8372632807554
 20
165.5655922820216
 30
0.0
 11
107.9000000000002
 21
165.7997289057432
 31
0.0
  0
LINE
  5
C8
330
1F
100
AcDbEntity
  8
0
  6
Continuous
 62
     7
100
AcDbLine
 10
107.8372632807554
 20
165.5655922820216
 30
0.0
 11
107.6320508075691
 21
164.7997289057432
 31
0.0
  0
LINE
  5
C9
330
1F
100
AcDbEntity
  8
0
  6
Continuous
 62
     7
100
AcDbLine
 10
107.0000000000002
 20
174.2997289057427
 30
0.0
 11
107.2845236523483
 21
174.2997289057427
 31
0.0
  0
LINE
  5
CA
330
1F
100
AcDbEntity
  8
0
  6
Continuous
 62
     7
100
AcDbLine
 10
107.615476347652
 20
174.2997289057427
 30
0.0
 11
107.9000000000002
 21
174.2997289057427
 31
0.0
  0
LINE
  5
CB
330
1F
100
AcDbEntity
  8
0
  6
Continuous
 62
     7
100
AcDbLine
 10
107.2845236523483
 20
174.2997289057427
 30
0.0
 11
107.615476347652
 21
174.2997289057427
 31
0.0
  0
LINE
  5
CC
330
1F
100
AcDbEntity
  8
0
  6
Continuous
 62
     7
100
AcDbLine
 10
81.85000000000016
 20
174.2997289057427
 30
0.0
 11
79.60000000000016
 21
174.2997289057427
 31
0.0
  0
LINE
  5
CD
330
1F
100
AcDbEntity
  8
0
  6
Continuous
 62
     7
100
AcDbLine
 10
75.60000000000016
 20
174.2997289057427
 30
0.0
 11
73.35000000000016
 21
174.2997289057427
 31
0.0
  0
LINE
  5
CE
330
1F
100
AcDbEntity
  8
0
  6
Continuous
 62
     7
100
AcDbLine
 10
81.85000000000016
 20
174.2997289057427
 30
0.0
 11
81.85000000000016
 21
171.7997289057427
 31
0.0
  0
LINE
  5
CF
330
1F
100
AcDbEntity
  8
0
  6
Continuous
 62
     7
100
AcDbLine
 10
79.60000000000016
 20
174.2997289057427
 30
0.0
 11
79.60000000000016
 21
157.2997289057427
 31
0.0
  0
LINE
  5
D0
330
1F
100
AcDbEntity
  8
0
  6
Continuous
 62
     7
100
AcDbLine
 10
94.30000000000021
 20
157.2997289057432
 30
0.0
 11
94.30000000000021
 21
174.2997289057427
 31
0.0
  0
LINE
  5
D1
330
1F
100
AcDbEntity
  8
0
  6
Continuous
 62
     7
100
AcDbLine
 10
107.9000000000002
 20
165.7997289057432
 30
0.0
 11
107.9000000000002
 21
174.2997289057427
 31
0.0
  0
LINE
  5
D2
330
1F
100
AcDbEntity
  8
0
  6
Continuous
 62
     7
100
AcDbLine
 10
90.30000000000021
 20
174.2997289057427
 30
0.0
 11
94.30000000000021
 21
174.2997289057427
 31
0.0
  0
LINE
  5
D3
330
1F
100
AcDbEntity
  8
0
  6
Continuous
 62
     7
100
AcDbLine
 10
90.30000000000021
 20
174.2997289057427
 30
0.0
 11
88.05000000000021
 21
174.2997289057427
 31
0.0
  0
LINE
  5
D4
330
1F
100
AcDbEntity
  8
0
  6
Continuous
 62
     7
100
AcDbLine
 10
88.05000000000021
 20
171.7997289057427
 30
0.0
 11
88.05000000000021
 21
174.2997289057427
 31
0.0
  0
LINE
  5
D5
330
1F
100
AcDbEntity
  8
0
  6
Continuous
 62
     7
100
AcDbLine
 10
90.30000000000021
 20
157.2997289057432
 30
0.0
 11
90.30000000000021
 21
174.2997289057427
 31
0.0
  0
LINE
  5
D6
330
1F
100
AcDbEntity
  8
0
  6
Continuous
 62
     7
100
AcDbLine
 10
96.55000000000021
 20
174.2997289057427
 30
0.0
 11
96.55000000000021
 21
171.7997289057427
 31
0.0
  0
LINE
  5
D7
330
1F
100
AcDbEntity
  8
0
  6
Continuous
 62
     7
100
AcDbLine
 10
105.0000000000002
 20
174.2997289057427
 30
0.0
 11
107.0000000000002
 21
174.2997289057427
 31
0.0
  0
LINE
  5
D8
330
1F
100
AcDbEntity
  8
0
  6
Continuous
 62
     7
100
AcDbLine
 10
105.0000000000002
 20
174.2997289057427
 30
0.0
 11
102.7500000000002
 21
174.2997289057427
 31
0.0
  0
LINE
  5
D9
330
1F
100
AcDbEntity
  8
0
  6
Continuous
 62
     7
100
AcDbLine
 10
96.55000000000021
 20
174.2997289057427
 30
0.0
 11
102.7500000000002
 21
174.2997289057427
 31
0.0
  0
LINE
  5
DA
330
1F
100
AcDbEntity
  8
0
  6
Continuous
 62
     7
100
AcDbLine
 10
96.55000000000021
 20
174.2997289057427
 30
0.0
 11
94.30000000000021
 21
174.2997289057427
 31
0.0
  0
LINE
  5
DB
330
1F
100
AcDbEntity
  8
0
  6
Continuous
 62
     7
100
AcDbLine
 10
102.7500000000002
 20
171.7997289057427
 30
0.0
 11
102.7500000000002
 21
174.2997289057427
 31
0.0
  0
LINE
  5
DC
330
1F
100
AcDbEntity
  8
0
  6
Continuous
 62
     7
100
AcDbLine
 10
105.0000000000002
 20
157.2997289057427
 30
0.0
 11
107.0000000000001
 21
157.2997289057427
 31
0.0
  0
LINE
  5
DD
330
1F
100
AcDbEntity
  8
0
  6
Continuous
 62
     7
100
AcDbLine
 10
105.0000000000002
 20
157.2997289057427
 30
0.0
 11
105.0000000000002
 21
174.2997289057427
 31
0.0
  0
LINE
  5
DE
330
1F
100
AcDbEntity
  8
0
  6
Continuous
 62
     7
100
AcDbLine
 10
102.2500000000002
 20
171.2997289057427
 30
0.0
 11
97.05000000000021
 21
171.2997289057427
 31
0.0
  0
LINE
  5
DF
330
1F
100
AcDbEntity
  8
0
  6
Continuous
 62
     7
100
AcDbLine
 10
94.30000000000021
 20
157.2997289057432
 30
0.0
 11
90.30000000000021
 21
157.2997289057432
 31
0.0
  0
LINE
  5
E0
330
1F
100
AcDbEntity
  8
0
  6
Continuous
 62
     7
100
AcDbLine
 10
75.60000000000011
 20
157.2997289057432
 30
0.0
 11
79.60000000000016
 21
157.2997289057427
 31
0.0
  0
LINE
  5
E1
330
1F
100
AcDbEntity
  8
0
  6
Continuous
 62
     7
100
AcDbLine
 10
107.0000000000001
 20
140.7997289057426
 30
0.0
 11
107.0000000000001
 21
157.2997289057427
 31
0.0
  0
LINE
  5
E2
330
1F
100
AcDbEntity
  8
0
  6
Continuous
 62
     7
100
AcDbLine
 10
75.60000000000016
 20
174.2997289057427
 30
0.0
 11
75.60000000000011
 21
157.2997289057432
 31
0.0
  0
LINE
  5
E3
330
1F
100
AcDbEntity
  8
1
  6
Continuous
 62
     7
100
AcDbLine
 10
158.9000000000001
 20
164.7997289057427
 30
0.0
 11
162.9000000000001
 21
164.7997289057427
 31
0.0
  0
LINE
  5
E4
330
1F
100
AcDbEntity
  8
1
  6
Continuous
 62
     7
100
AcDbLine
 10
142.9000000000001
 20
164.7997289057427
 30
0.0
 11
138.9000000000001
 21
164.7997289057427
 31
0.0
  0
LINE
  5
E5
102
{ACAD_REACTORS
330
5E6
102
}
330
1F
100
AcDbEntity
  8
1
  6
Continuous
 62
     2
100
AcDbLine
 10
69.49999999999997
 20
76.95935674649505
 30
0.0
 11
70.99999999999997
 21
76.95935674649505
 31
0.0
  0
LINE
  5
E6
102
{ACAD_REACTORS
330
5E6
102
}
330
1F
100
AcDbEntity
  8
1
  6
Continuous
 62
     2
100
AcDbLine
 10
70.24999999999997
 20
74.95935674649505
 30
0.0
 11
69.49999999999997
 21
76.95935674649505
 31
0.0
  0
LINE
  5
E7
102
{ACAD_REACTORS
330
5E6
102
}
330
1F
100
AcDbEntity
  8
1
  6
Continuous
 62
     2
100
AcDbLine
 10
70.99999999999997
 20
76.95935674649505
 30
0.0
 11
70.24999999999997
 21
74.95935674649505
 31
0.0
  0
LINE
  5
E8
102
{ACAD_REACTORS
330
5E7
102
}
330
1F
100
AcDbEntity
  8
1
  6
Continuous
 62
     2
100
AcDbLine
 10
85.70000000000007
 20
76.95935674649505
 30
0.0
 11
84.95000000000007
 21
74.95935674649505
 31
0.0
  0
LINE
  5
E9
102
{ACAD_REACTORS
330
5E7
102
}
330
1F
100
AcDbEntity
  8
1
  6
Continuous
 62
     2
100
AcDbLine
 10
84.95000000000007
 20
74.95935674649505
 30
0.0
 11
84.20000000000007
 21
76.95935674649505
 31
0.0
  0
LINE
  5
EA
102
{ACAD_REACTORS
330
5E7
102
}
330
1F
100
AcDbEntity
  8
1
  6
Continuous
 62
     2
100
AcDbLine
 10
84.20000000000007
 20
76.95935674649505
 30
0.0
 11
85.70000000000007
 21
76.95935674649505
 31
0.0
  0
LINE
  5
EB
102
{ACAD_REACTORS
330
5E5
102
}
330
1F
100
AcDbEntity
  8
1
  6
Continuous
 62
     2
100
AcDbLine
 10
98.9000000000002
 20
76.95935674649505
 30
0.0
 11
100.4000000000002
 21
76.95935674649505
 31
0.0
  0
LINE
  5
EC
102
{ACAD_REACTORS
330
5E5
102
}
330
1F
100
AcDbEntity
  8
1
  6
Continuous
 62
     2
100
AcDbLine
 10
99.6500000000002
 20
74.95935674649505
 30
0.0
 11
98.9000000000002
 21
76.95935674649505
 31
0.0
  0
LINE
  5
ED
102
{ACAD_REACTORS
330
5E5
102
}
330
1F
100
AcDbEntity
  8
1
  6
Continuous
 62
     2
100
AcDbLine
 10
100.4000000000002
 20
76.95935674649505
 30
0.0
 11
99.6500000000002
 21
74.95935674649505
 31
0.0
  0
LINE
  5
EE
330
1F
100
AcDbEntity
  8
0
  6
Continuous
 62
     7
100
AcDbLine
 10
141.3
 20
145.7997289057428
 30
0.0
 11
141.3
 21
141.2997289057427
 31
0.0
  0
LINE
  5
EF
330
1F
100
AcDbEntity
  8
0
  6
Continuous
 62
     7
100
AcDbLine
 10
144.3000000000002
 20
141.2997289057427
 30
0.0
 11
141.3
 21
141.2997289057427
 31
0.0
  0
LINE
  5
F0
330
1F
100
AcDbEntity
  8
0
  6
Continuous
 62
     7
100
AcDbLine
 10
144.3000000000002
 20
141.2997289057427
 30
0.0
 11
144.3000000000002
 21
145.7997289057428
 31
0.0
  0
LINE
  5
F1
330
1F
100
AcDbEntity
  8
0
  6
Continuous
 62
     7
100
AcDbLine
 10
141.8
 20
146.2997289057428
 30
0.0
 11
143.8000000000002
 21
146.2997289057428
 31
0.0
  0
LINE
  5
F2
330
1F
100
AcDbEntity
  8
0
  6
DASHED
 62
     7
100
AcDbLine
 10
94.19500000000009
 20
226.7105516132644
 30
0.0
 11
93.64500000000008
 21
226.7105516132644
 31
0.0
  0
LINE
  5
F3
330
1F
100
AcDbEntity
  8
0
  6
DASHED
 62
     7
100
AcDbLine
 10
98.27500000000013
 20
226.7105516132644
 30
0.0
 11
97.72500000000012
 21
226.7105516132644
 31
0.0
  0
LINE
  5
F4
330
1F
100
AcDbEntity
  8
0
  6
DASHED
 62
     7
100
AcDbLine
 10
97.2550000000001
 20
226.7105516132644
 30
0.0
 11
96.70500000000008
 21
226.7105516132644
 31
0.0
  0
LINE
  5
F5
330
1F
100
AcDbEntity
  8
0
  6
DASHED
 62
     7
100
AcDbLine
 10
96.23500000000011
 20
226.7105516132644
 30
0.0
 11
95.6850000000001
 21
226.7105516132644
 31
0.0
  0
LINE
  5
F6
330
1F
100
AcDbEntity
  8
0
  6
DASHED
 62
     7
100
AcDbLine
 10
95.21500000000013
 20
226.7105516132644
 30
0.0
 11
94.66500000000012
 21
226.7105516132644
 31
0.0
  0
LINE
  5
F7
330
1F
100
AcDbEntity
  8
0
  6
DASHED
 62
     7
100
AcDbLine
 10
98.45000000000014
 20
229.9105516132644
 30
0.0
 11
92.45000000000014
 21
229.9105516132644
 31
0.0
  0
LINE
  5
F8
330
1F
100
AcDbEntity
  8
0
  6
DASHED
 62
     7
100
AcDbLine
 10
98.45000000000014
 20
231.3105516132644
 30
0.0
 11
98.45000000000014
 21
230.8105516132644
 31
0.0
  0
LINE
  5
F9
330
1F
100
AcDbEntity
  8
0
  6
DASHED
 62
     7
100
AcDbLine
 10
92.45000000000014
 20
231.3105516132644
 30
0.0
 11
92.45000000000014
 21
231.8105516132644
 31
0.0
  0
LINE
  5
FA
330
1F
100
AcDbEntity
  8
0
  6
DASHED
 62
     7
100
AcDbLine
 10
98.45000000000014
 20
231.8105516132644
 30
0.0
 11
92.45000000000014
 21
231.8105516132644
 31
0.0
  0
LINE
  5
FB
330
1F
100
AcDbEntity
  8
0
  6
DASHED
 62
     7
100
AcDbLine
 10
99.90000000000013
 20
228.3105516132644
 30
0.0
 11
91.0000000000001
 21
228.3105516132644
 31
0.0
  0
LINE
  5
FC
330
1F
100
AcDbEntity
  8
0
  6
DASHED
 62
     7
100
AcDbLine
 10
93.85000000000012
 20
233.2105516132644
 30
0.0
 11
92.45000000000014
 21
233.2105516132644
 31
0.0
  0
LINE
  5
FD
330
1F
100
AcDbEntity
  8
0
  6
DASHED
 62
     7
100
AcDbLine
 10
98.45000000000014
 20
232.5105516132644
 30
0.0
 11
92.45000000000014
 21
232.5105516132644
 31
0.0
  0
LINE
  5
FE
330
1F
100
AcDbEntity
  8
0
  6
DASHED
 62
     7
100
AcDbLine
 10
91.0000000000001
 20
228.5105516132644
 30
0.0
 11
99.90000000000013
 21
228.5105516132644
 31
0.0
  0
LINE
  5
FF
330
1F
100
AcDbEntity
  8
0
  6
DASHED
 62
     7
100
AcDbLine
 10
93.64500000000008
 20
226.7105516132644
 30
0.0
 11
93.64500000000008
 21
225.4105516132644
 31
0.0
  0
LINE
  5
100
330
1F
100
AcDbEntity
  8
0
  6
DASHED
 62
     7
100
AcDbLine
 10
93.17500000000011
 20
225.4105516132644
 30
0.0
 11
93.17500000000011
 21
226.7105516132644
 31
0.0
  0
LINE
  5
101
330
1F
100
AcDbEntity
  8
0
  6
DASHED
 62
     7
100
AcDbLine
 10
93.17500000000011
 20
226.7105516132644
 30
0.0
 11
92.6250000000001
 21
226.7105516132644
 31
0.0
  0
LINE
  5
102
330
1F
100
AcDbEntity
  8
0
  6
DASHED
 62
     7
100
AcDbLine
 10
92.6250000000001
 20
226.7105516132644
 30
0.0
 11
92.6250000000001
 21
225.4105516132644
 31
0.0
  0
LINE
  5
103
330
1F
100
AcDbEntity
  8
0
  6
DASHED
 62
     7
100
AcDbLine
 10
91.0000000000001
 20
231.3105516132644
 30
0.0
 11
91.45000000000014
 21
231.3105516132644
 31
0.0
  0
LINE
  5
104
330
1F
100
AcDbEntity
  8
0
  6
DASHED
 62
     7
100
AcDbLine
 10
89.60000000000012
 20
231.3105516132644
 30
0.0
 11
89.60000000000012
 21
230.8105516132644
 31
0.0
  0
LINE
  5
105
330
1F
100
AcDbEntity
  8
0
  6
DASHED
 62
     7
100
AcDbLine
 10
90.45000000000009
 20
231.3105516132644
 30
0.0
 11
91.0000000000001
 21
231.3105516132644
 31
0.0
  0
LINE
  5
106
330
1F
100
AcDbEntity
  8
0
  6
DASHED
 62
     7
100
AcDbLine
 10
90.45000000000009
 20
231.3105516132644
 30
0.0
 11
90.45000000000009
 21
230.8105516132644
 31
0.0
  0
LINE
  5
107
330
1F
100
AcDbEntity
  8
0
  6
DASHED
 62
     7
100
AcDbLine
 10
91.0000000000001
 20
231.3105516132644
 30
0.0
 11
91.0000000000001
 21
230.8105516132644
 31
0.0
  0
LINE
  5
108
330
1F
100
AcDbEntity
  8
0
  6
DASHED
 62
     7
100
AcDbLine
 10
89.60000000000012
 20
230.8105516132644
 30
0.0
 11
90.45000000000009
 21
230.8105516132644
 31
0.0
  0
LINE
  5
109
330
1F
100
AcDbEntity
  8
0
  6
DASHED
 62
     7
100
AcDbLine
 10
89.60000000000012
 20
231.3105516132644
 30
0.0
 11
90.45000000000009
 21
231.3105516132644
 31
0.0
  0
LINE
  5
10A
330
1F
100
AcDbEntity
  8
0
  6
DASHED
 62
     7
100
AcDbLine
 10
91.45000000000014
 20
231.3105516132644
 30
0.0
 11
92.45000000000014
 21
231.3105516132644
 31
0.0
  0
LINE
  5
10B
330
1F
100
AcDbEntity
  8
0
  6
DASHED
 62
     7
100
AcDbLine
 10
89.60000000000012
 20
229.9105516132644
 30
0.0
 11
89.60000000000012
 21
230.8105516132644
 31
0.0
  0
LINE
  5
10C
330
1F
100
AcDbEntity
  8
0
  6
DASHED
 62
     7
100
AcDbLine
 10
90.45000000000009
 20
230.8105516132644
 30
0.0
 11
90.45000000000009
 21
229.9105516132644
 31
0.0
  0
LINE
  5
10D
330
1F
100
AcDbEntity
  8
0
  6
DASHED
 62
     7
100
AcDbLine
 10
91.60500000000012
 20
226.7105516132644
 30
0.0
 11
91.60500000000012
 21
225.4105516132644
 31
0.0
  0
LINE
  5
10E
330
1F
100
AcDbEntity
  8
0
  6
DASHED
 62
     7
100
AcDbLine
 10
90.45000000000009
 20
229.9105516132644
 30
0.0
 11
89.60000000000012
 21
229.9105516132644
 31
0.0
  0
LINE
  5
10F
330
1F
100
AcDbEntity
  8
0
  6
DASHED
 62
     7
100
AcDbLine
 10
90.45000000000009
 20
227.9105516132644
 30
0.0
 11
91.0000000000001
 21
227.9105516132644
 31
0.0
  0
LINE
  5
110
330
1F
100
AcDbEntity
  8
0
  6
DASHED
 62
     7
100
AcDbLine
 10
91.0000000000001
 20
227.9105516132644
 30
0.0
 11
91.0000000000001
 21
228.3105516132644
 31
0.0
  0
LINE
  5
111
330
1F
100
AcDbEntity
  8
0
  6
DASHED
 62
     7
100
AcDbLine
 10
91.0000000000001
 20
229.9105516132644
 30
0.0
 11
91.0000000000001
 21
230.8105516132644
 31
0.0
  0
LINE
  5
112
330
1F
100
AcDbEntity
  8
0
  6
DASHED
 62
     7
100
AcDbLine
 10
92.15500000000013
 20
225.4105516132644
 30
0.0
 11
92.15500000000013
 21
226.7105516132644
 31
0.0
  0
LINE
  5
113
330
1F
100
AcDbEntity
  8
0
  6
DASHED
 62
     7
100
AcDbLine
 10
92.15500000000013
 20
226.7105516132644
 30
0.0
 11
91.60500000000012
 21
226.7105516132644
 31
0.0
  0
LINE
  5
114
330
1F
100
AcDbEntity
  8
0
  6
DASHED
 62
     7
100
AcDbLine
 10
92.30000000000011
 20
231.9105516132644
 30
0.0
 11
92.45000000000014
 21
231.9105516132644
 31
0.0
  0
LINE
  5
115
330
1F
100
AcDbEntity
  8
0
  6
DASHED
 62
     7
100
AcDbLine
 10
91.45000000000014
 20
231.3605516132643
 30
0.0
 11
91.45000000000014
 21
231.3105516132644
 31
0.0
  0
LINE
  5
116
330
1F
100
AcDbEntity
  8
0
  6
DASHED
 62
     7
100
AcDbLine
 10
91.0000000000001
 20
228.3105516132644
 30
0.0
 11
91.0000000000001
 21
228.5105516132644
 31
0.0
  0
LINE
  5
117
330
1F
100
AcDbEntity
  8
0
  6
DASHED
 62
     7
100
AcDbLine
 10
91.0000000000001
 20
229.9105516132644
 30
0.0
 11
91.0000000000001
 21
228.5105516132644
 31
0.0
  0
LINE
  5
118
330
1F
100
AcDbEntity
  8
0
  6
DASHED
 62
     7
100
AcDbLine
 10
92.45000000000014
 20
230.8105516132644
 30
0.0
 11
92.45000000000014
 21
231.3105516132644
 31
0.0
  0
LINE
  5
119
330
1F
100
AcDbEntity
  8
0
  6
DASHED
 62
     7
100
AcDbLine
 10
92.45000000000014
 20
229.9105516132644
 30
0.0
 11
92.45000000000014
 21
230.8105516132644
 31
0.0
  0
LINE
  5
11A
330
1F
100
AcDbEntity
  8
0
  6
DASHED
 62
     7
100
AcDbLine
 10
92.45000000000014
 20
232.5105516132644
 30
0.0
 11
92.45000000000014
 21
233.2105516132644
 31
0.0
  0
LINE
  5
11B
330
1F
100
AcDbEntity
  8
0
  6
DASHED
 62
     7
100
AcDbLine
 10
92.45000000000014
 20
231.8105516132644
 30
0.0
 11
92.45000000000014
 21
232.5105516132644
 31
0.0
  0
LINE
  5
11C
330
1F
100
AcDbEntity
  8
0
  6
DASHED
 62
     7
100
AcDbLine
 10
92.45000000000014
 20
229.9105516132644
 30
0.0
 11
91.0000000000001
 21
229.9105516132644
 31
0.0
  0
LINE
  5
11D
330
1F
100
AcDbEntity
  8
0
  6
DASHED
 62
     7
100
AcDbLine
 10
91.0000000000001
 20
230.8105516132644
 30
0.0
 11
92.45000000000014
 21
230.8105516132644
 31
0.0
  0
LINE
  5
11E
330
1F
100
AcDbEntity
  8
0
  6
DASHED
 62
     7
100
AcDbLine
 10
90.45000000000009
 20
229.9105516132644
 30
0.0
 11
90.45000000000009
 21
227.9105516132644
 31
0.0
  0
LINE
  5
11F
330
1F
100
AcDbEntity
  8
0
  6
DASHED
 62
     7
100
AcDbLine
 10
89.60000000000012
 20
225.4105516132644
 30
0.0
 11
89.60000000000012
 21
229.9105516132644
 31
0.0
  0
LINE
  5
120
330
1F
100
AcDbEntity
  8
0
  6
DASHED
 62
     7
100
AcDbLine
 10
98.27500000000013
 20
225.4105516132644
 30
0.0
 11
98.27500000000013
 21
226.7105516132644
 31
0.0
  0
LINE
  5
121
330
1F
100
AcDbEntity
  8
0
  6
DASHED
 62
     7
100
AcDbLine
 10
98.45000000000014
 20
231.8105516132644
 30
0.0
 11
98.45000000000014
 21
231.3105516132644
 31
0.0
  0
LINE
  5
122
330
1F
100
AcDbEntity
  8
0
  6
DASHED
 62
     7
100
AcDbLine
 10
95.6850000000001
 20
226.7105516132644
 30
0.0
 11
95.6850000000001
 21
225.4105516132644
 31
0.0
  0
LINE
  5
123
330
1F
100
AcDbEntity
  8
0
  6
DASHED
 62
     7
100
AcDbLine
 10
95.21500000000013
 20
225.4105516132644
 30
0.0
 11
95.21500000000013
 21
226.7105516132644
 31
0.0
  0
LINE
  5
124
330
1F
100
AcDbEntity
  8
0
  6
DASHED
 62
     7
100
AcDbLine
 10
94.66500000000012
 20
226.7105516132644
 30
0.0
 11
94.66500000000012
 21
225.4105516132644
 31
0.0
  0
LINE
  5
125
330
1F
100
AcDbEntity
  8
0
  6
DASHED
 62
     7
100
AcDbLine
 10
94.19500000000009
 20
225.4105516132644
 30
0.0
 11
94.19500000000009
 21
226.7105516132644
 31
0.0
  0
LINE
  5
126
330
1F
100
AcDbEntity
  8
0
  6
DASHED
 62
     7
100
AcDbLine
 10
97.72500000000012
 20
226.7105516132644
 30
0.0
 11
97.72500000000012
 21
225.4105516132644
 31
0.0
  0
LINE
  5
127
330
1F
100
AcDbEntity
  8
0
  6
DASHED
 62
     7
100
AcDbLine
 10
97.2550000000001
 20
225.4105516132644
 30
0.0
 11
97.2550000000001
 21
226.7105516132644
 31
0.0
  0
LINE
  5
128
330
1F
100
AcDbEntity
  8
0
  6
DASHED
 62
     7
100
AcDbLine
 10
96.23500000000011
 20
225.4105516132644
 30
0.0
 11
96.23500000000011
 21
226.7105516132644
 31
0.0
  0
LINE
  5
129
330
1F
100
AcDbEntity
  8
0
  6
DASHED
 62
     7
100
AcDbLine
 10
96.70500000000008
 20
226.7105516132644
 30
0.0
 11
96.70500000000008
 21
225.4105516132644
 31
0.0
  0
LINE
  5
12A
330
1F
100
AcDbEntity
  8
0
  6
DASHED
 62
     7
100
AcDbLine
 10
97.05000000000011
 20
233.3105516132644
 30
0.0
 11
97.05000000000011
 21
233.3605516132643
 31
0.0
  0
LINE
  5
12B
330
1F
100
AcDbEntity
  8
0
  6
DASHED
 62
     7
100
AcDbLine
 10
98.45000000000014
 20
232.5105516132644
 30
0.0
 11
98.45000000000014
 21
233.2105516132644
 31
0.0
  0
LINE
  5
12C
330
1F
100
AcDbEntity
  8
0
  6
DASHED
 62
     7
100
AcDbLine
 10
93.85000000000012
 20
233.3105516132644
 30
0.0
 11
93.85000000000012
 21
233.3605516132643
 31
0.0
  0
LINE
  5
12D
330
1F
100
AcDbEntity
  8
0
  6
DASHED
 62
     7
100
AcDbLine
 10
93.85000000000012
 20
233.2105516132644
 30
0.0
 11
93.85000000000012
 21
233.3105516132644
 31
0.0
  0
LINE
  5
12E
330
1F
100
AcDbEntity
  8
0
  6
DASHED
 62
     7
100
AcDbLine
 10
97.05000000000011
 20
233.2105516132644
 30
0.0
 11
98.45000000000014
 21
233.2105516132644
 31
0.0
  0
LINE
  5
12F
330
1F
100
AcDbEntity
  8
0
  6
DASHED
 62
     7
100
AcDbLine
 10
97.05000000000011
 20
233.2105516132644
 30
0.0
 11
97.05000000000011
 21
233.3105516132644
 31
0.0
  0
LINE
  5
130
330
1F
100
AcDbEntity
  8
0
  6
DASHED
 62
     7
100
AcDbLine
 10
97.05000000000011
 20
233.3105516132644
 30
0.0
 11
93.85000000000012
 21
233.3105516132644
 31
0.0
  0
LINE
  5
131
330
1F
100
AcDbEntity
  8
0
  6
DASHED
 62
     7
100
AcDbLine
 10
100.4500000000001
 20
231.3105516132644
 30
0.0
 11
101.3000000000001
 21
231.3105516132644
 31
0.0
  0
LINE
  5
132
330
1F
100
AcDbEntity
  8
0
  6
DASHED
 62
     7
100
AcDbLine
 10
100.4500000000001
 20
227.9105516132644
 30
0.0
 11
100.4500000000001
 21
229.9105516132644
 31
0.0
  0
LINE
  5
133
330
1F
100
AcDbEntity
  8
0
  6
DASHED
 62
     7
100
AcDbLine
 10
99.90000000000013
 20
228.3105516132644
 30
0.0
 11
99.90000000000013
 21
227.9105516132644
 31
0.0
  0
LINE
  5
134
330
1F
100
AcDbEntity
  8
0
  6
DASHED
 62
     7
100
AcDbLine
 10
99.90000000000013
 20
227.9105516132644
 30
0.0
 11
100.4500000000001
 21
227.9105516132644
 31
0.0
  0
LINE
  5
135
330
1F
100
AcDbEntity
  8
0
  6
DASHED
 62
     7
100
AcDbLine
 10
98.7450000000001
 20
226.7105516132644
 30
0.0
 11
98.7450000000001
 21
225.4105516132644
 31
0.0
  0
LINE
  5
136
330
1F
100
AcDbEntity
  8
0
  6
DASHED
 62
     7
100
AcDbLine
 10
99.29500000000012
 20
225.4105516132644
 30
0.0
 11
99.29500000000012
 21
226.7105516132644
 31
0.0
  0
LINE
  5
137
330
1F
100
AcDbEntity
  8
0
  6
DASHED
 62
     7
100
AcDbLine
 10
99.29500000000012
 20
226.7105516132644
 30
0.0
 11
98.7450000000001
 21
226.7105516132644
 31
0.0
  0
LINE
  5
138
330
1F
100
AcDbEntity
  8
0
  6
DASHED
 62
     7
100
AcDbLine
 10
99.90000000000013
 20
228.5105516132644
 30
0.0
 11
99.90000000000013
 21
229.9105516132644
 31
0.0
  0
LINE
  5
139
330
1F
100
AcDbEntity
  8
0
  6
DASHED
 62
     7
100
AcDbLine
 10
99.90000000000013
 20
228.5105516132644
 30
0.0
 11
99.90000000000013
 21
228.3105516132644
 31
0.0
  0
LINE
  5
13A
330
1F
100
AcDbEntity
  8
0
  6
DASHED
 62
     7
100
AcDbLine
 10
99.45000000000014
 20
231.3605516132643
 30
0.0
 11
99.45000000000014
 21
231.3105516132644
 31
0.0
  0
LINE
  5
13B
330
1F
100
AcDbEntity
  8
0
  6
DASHED
 62
     7
100
AcDbLine
 10
99.90000000000013
 20
231.3105516132644
 30
0.0
 11
100.4500000000001
 21
231.3105516132644
 31
0.0
  0
LINE
  5
13C
330
1F
100
AcDbEntity
  8
0
  6
DASHED
 62
     7
100
AcDbLine
 10
99.45000000000014
 20
231.3105516132644
 30
0.0
 11
99.90000000000013
 21
231.3105516132644
 31
0.0
  0
LINE
  5
13D
330
1F
100
AcDbEntity
  8
0
  6
DASHED
 62
     7
100
AcDbLine
 10
98.45000000000014
 20
230.8105516132644
 30
0.0
 11
98.45000000000014
 21
229.9105516132644
 31
0.0
  0
LINE
  5
13E
330
1F
100
AcDbEntity
  8
0
  6
DASHED
 62
     7
100
AcDbLine
 10
98.45000000000014
 20
231.8105516132644
 30
0.0
 11
98.45000000000014
 21
232.5105516132644
 31
0.0
  0
LINE
  5
13F
330
1F
100
AcDbEntity
  8
0
  6
DASHED
 62
     7
100
AcDbLine
 10
98.60000000000007
 20
231.9105516132644
 30
0.0
 11
98.45000000000014
 21
231.9105516132644
 31
0.0
  0
LINE
  5
140
330
1F
100
AcDbEntity
  8
0
  6
DASHED
 62
     7
100
AcDbLine
 10
100.4500000000001
 20
231.3105516132644
 30
0.0
 11
100.4500000000001
 21
230.8105516132644
 31
0.0
  0
LINE
  5
141
330
1F
100
AcDbEntity
  8
0
  6
DASHED
 62
     7
100
AcDbLine
 10
101.3000000000001
 20
230.8105516132644
 30
0.0
 11
101.3000000000001
 21
231.3105516132644
 31
0.0
  0
LINE
  5
142
330
1F
100
AcDbEntity
  8
0
  6
DASHED
 62
     7
100
AcDbLine
 10
101.3000000000001
 20
229.9105516132644
 30
0.0
 11
100.4500000000001
 21
229.9105516132644
 31
0.0
  0
LINE
  5
143
330
1F
100
AcDbEntity
  8
0
  6
DASHED
 62
     7
100
AcDbLine
 10
100.4500000000001
 20
229.9105516132644
 30
0.0
 11
100.4500000000001
 21
230.8105516132644
 31
0.0
  0
LINE
  5
144
330
1F
100
AcDbEntity
  8
0
  6
DASHED
 62
     7
100
AcDbLine
 10
99.90000000000013
 20
230.8105516132644
 30
0.0
 11
99.90000000000013
 21
229.9105516132644
 31
0.0
  0
LINE
  5
145
330
1F
100
AcDbEntity
  8
0
  6
DASHED
 62
     7
100
AcDbLine
 10
101.3000000000001
 20
230.8105516132644
 30
0.0
 11
101.3000000000001
 21
229.9105516132644
 31
0.0
  0
LINE
  5
146
330
1F
100
AcDbEntity
  8
0
  6
DASHED
 62
     7
100
AcDbLine
 10
100.4500000000001
 20
230.8105516132644
 30
0.0
 11
101.3000000000001
 21
230.8105516132644
 31
0.0
  0
LINE
  5
147
330
1F
100
AcDbEntity
  8
0
  6
DASHED
 62
     7
100
AcDbLine
 10
99.90000000000013
 20
231.3105516132644
 30
0.0
 11
99.90000000000013
 21
230.8105516132644
 31
0.0
  0
LINE
  5
148
330
1F
100
AcDbEntity
  8
0
  6
DASHED
 62
     7
100
AcDbLine
 10
98.45000000000014
 20
230.8105516132644
 30
0.0
 11
99.90000000000013
 21
230.8105516132644
 31
0.0
  0
LINE
  5
149
330
1F
100
AcDbEntity
  8
0
  6
DASHED
 62
     7
100
AcDbLine
 10
98.45000000000014
 20
231.3105516132644
 30
0.0
 11
99.45000000000014
 21
231.3105516132644
 31
0.0
  0
LINE
  5
14A
330
1F
100
AcDbEntity
  8
0
  6
DASHED
 62
     7
100
AcDbLine
 10
101.3000000000001
 20
229.9105516132644
 30
0.0
 11
101.3000000000001
 21
225.4105516132644
 31
0.0
  0
LINE
  5
14B
330
1F
100
AcDbEntity
  8
0
  6
DASHED
 62
     7
100
AcDbLine
 10
99.90000000000013
 20
229.9105516132644
 30
0.0
 11
98.45000000000014
 21
229.9105516132644
 31
0.0
  0
LINE
  5
14C
330
1F
100
AcDbEntity
  8
0
  6
DASHED
 62
     7
100
AcDbLine
 10
97.72500000000012
 20
224.7105516132644
 30
0.0
 11
97.72500000000012
 21
225.4105516132644
 31
0.0
  0
LINE
  5
14D
330
1F
100
AcDbEntity
  8
0
  6
DASHED
 62
     7
100
AcDbLine
 10
97.2550000000001
 20
224.7105516132644
 30
0.0
 11
97.2550000000001
 21
225.4105516132644
 31
0.0
  0
LINE
  5
14E
330
1F
100
AcDbEntity
  8
0
  6
DASHED
 62
     7
100
AcDbLine
 10
98.27500000000013
 20
224.7105516132644
 30
0.0
 11
98.27500000000013
 21
225.4105516132644
 31
0.0
  0
LINE
  5
14F
330
1F
100
AcDbEntity
  8
0
  6
DASHED
 62
     7
100
AcDbLine
 10
96.70500000000008
 20
224.7105516132644
 30
0.0
 11
96.70500000000008
 21
225.4105516132644
 31
0.0
  0
LINE
  5
150
330
1F
100
AcDbEntity
  8
0
  6
DASHED
 62
     7
100
AcDbLine
 10
96.70500000000008
 20
225.4105516132644
 30
0.0
 11
96.23500000000011
 21
225.4105516132644
 31
0.0
  0
LINE
  5
151
330
1F
100
AcDbEntity
  8
0
  6
DASHED
 62
     7
100
AcDbLine
 10
96.23500000000011
 20
224.7105516132644
 30
0.0
 11
96.23500000000011
 21
225.4105516132644
 31
0.0
  0
LINE
  5
152
330
1F
100
AcDbEntity
  8
0
  6
DASHED
 62
     7
100
AcDbLine
 10
98.7450000000001
 20
224.7105516132644
 30
0.0
 11
98.7450000000001
 21
225.4105516132644
 31
0.0
  0
LINE
  5
153
330
1F
100
AcDbEntity
  8
0
  6
DASHED
 62
     7
100
AcDbLine
 10
91.60500000000012
 20
224.7105516132644
 30
0.0
 11
91.60500000000012
 21
225.4105516132644
 31
0.0
  0
LINE
  5
154
330
1F
100
AcDbEntity
  8
0
  6
DASHED
 62
     7
100
AcDbLine
 10
91.60500000000012
 20
225.4105516132644
 30
0.0
 11
89.60000000000012
 21
225.4105516132644
 31
0.0
  0
LINE
  5
155
330
1F
100
AcDbEntity
  8
0
  6
DASHED
 62
     7
100
AcDbLine
 10
89.60000000000012
 20
225.4105516132644
 30
0.0
 11
89.60000000000012
 21
224.7105516132644
 31
0.0
  0
LINE
  5
156
330
1F
100
AcDbEntity
  8
0
  6
DASHED
 62
     7
100
AcDbLine
 10
97.72500000000012
 20
225.4105516132644
 30
0.0
 11
97.2550000000001
 21
225.4105516132644
 31
0.0
  0
LINE
  5
157
330
1F
100
AcDbEntity
  8
0
  6
DASHED
 62
     7
100
AcDbLine
 10
98.7450000000001
 20
225.4105516132644
 30
0.0
 11
98.27500000000013
 21
225.4105516132644
 31
0.0
  0
LINE
  5
158
330
1F
100
AcDbEntity
  8
0
  6
DASHED
 62
     7
100
AcDbLine
 10
101.3000000000001
 20
225.4105516132644
 30
0.0
 11
99.29500000000012
 21
225.4105516132644
 31
0.0
  0
LINE
  5
159
330
1F
100
AcDbEntity
  8
0
  6
DASHED
 62
     7
100
AcDbLine
 10
92.6250000000001
 20
224.7105516132644
 30
0.0
 11
92.6250000000001
 21
225.4105516132644
 31
0.0
  0
LINE
  5
15A
330
1F
100
AcDbEntity
  8
0
  6
DASHED
 62
     7
100
AcDbLine
 10
93.64500000000008
 20
224.7105516132644
 30
0.0
 11
93.64500000000008
 21
225.4105516132644
 31
0.0
  0
LINE
  5
15B
330
1F
100
AcDbEntity
  8
0
  6
DASHED
 62
     7
100
AcDbLine
 10
93.64500000000008
 20
225.4105516132644
 30
0.0
 11
93.17500000000011
 21
225.4105516132644
 31
0.0
  0
LINE
  5
15C
330
1F
100
AcDbEntity
  8
0
  6
DASHED
 62
     7
100
AcDbLine
 10
93.17500000000011
 20
224.7105516132644
 30
0.0
 11
93.17500000000011
 21
225.4105516132644
 31
0.0
  0
LINE
  5
15D
330
1F
100
AcDbEntity
  8
0
  6
DASHED
 62
     7
100
AcDbLine
 10
92.15500000000013
 20
224.7105516132644
 30
0.0
 11
92.15500000000013
 21
225.4105516132644
 31
0.0
  0
LINE
  5
15E
330
1F
100
AcDbEntity
  8
0
  6
DASHED
 62
     7
100
AcDbLine
 10
95.6850000000001
 20
224.7105516132644
 30
0.0
 11
95.6850000000001
 21
225.4105516132644
 31
0.0
  0
LINE
  5
15F
330
1F
100
AcDbEntity
  8
0
  6
DASHED
 62
     7
100
AcDbLine
 10
95.6850000000001
 20
225.4105516132644
 30
0.0
 11
95.21500000000013
 21
225.4105516132644
 31
0.0
  0
LINE
  5
160
330
1F
100
AcDbEntity
  8
0
  6
DASHED
 62
     7
100
AcDbLine
 10
95.21500000000013
 20
224.7105516132644
 30
0.0
 11
95.21500000000013
 21
225.4105516132644
 31
0.0
  0
LINE
  5
161
330
1F
100
AcDbEntity
  8
0
  6
DASHED
 62
     7
100
AcDbLine
 10
101.3000000000001
 20
224.7105516132644
 30
0.0
 11
101.3000000000001
 21
225.4105516132644
 31
0.0
  0
LINE
  5
162
330
1F
100
AcDbEntity
  8
0
  6
DASHED
 62
     7
100
AcDbLine
 10
99.29500000000012
 20
224.7105516132644
 30
0.0
 11
99.29500000000012
 21
225.4105516132644
 31
0.0
  0
LINE
  5
163
330
1F
100
AcDbEntity
  8
0
  6
DASHED
 62
     7
100
AcDbLine
 10
92.6250000000001
 20
225.4105516132644
 30
0.0
 11
92.15500000000013
 21
225.4105516132644
 31
0.0
  0
LINE
  5
164
330
1F
100
AcDbEntity
  8
0
  6
DASHED
 62
     7
100
AcDbLine
 10
94.66500000000012
 20
224.7105516132644
 30
0.0
 11
94.66500000000012
 21
225.4105516132644
 31
0.0
  0
LINE
  5
165
330
1F
100
AcDbEntity
  8
0
  6
DASHED
 62
     7
100
AcDbLine
 10
94.66500000000012
 20
225.4105516132644
 30
0.0
 11
94.19500000000009
 21
225.4105516132644
 31
0.0
  0
LINE
  5
166
330
1F
100
AcDbEntity
  8
0
  6
DASHED
 62
     7
100
AcDbLine
 10
94.19500000000009
 20
224.7105516132644
 30
0.0
 11
94.19500000000009
 21
225.4105516132644
 31
0.0
  0
LINE
  5
167
330
1F
100
AcDbEntity
  8
0
  6
DASHED
 62
     7
100
AcDbLine
 10
99.29500000000012
 20
224.7105516132644
 30
0.0
 11
101.3000000000001
 21
224.7105516132644
 31
0.0
  0
LINE
  5
168
330
1F
100
AcDbEntity
  8
0
  6
DASHED
 62
     7
100
AcDbLine
 10
97.55000000000011
 20
224.6605516132644
 30
0.0
 11
97.55000000000011
 21
224.7105516132644
 31
0.0
  0
LINE
  5
169
330
1F
100
AcDbEntity
  8
0
  6
DASHED
 62
     7
100
AcDbLine
 10
98.95000000000014
 20
224.6605516132644
 30
0.0
 11
98.95000000000014
 21
224.7105516132644
 31
0.0
  0
LINE
  5
16A
330
1F
100
AcDbEntity
  8
0
  6
DASHED
 62
     7
100
AcDbLine
 10
93.35000000000012
 20
224.6605516132644
 30
0.0
 11
93.35000000000012
 21
224.7105516132644
 31
0.0
  0
LINE
  5
16B
330
1F
100
AcDbEntity
  8
0
  6
DASHED
 62
     7
100
AcDbLine
 10
91.95000000000014
 20
224.6605516132644
 30
0.0
 11
91.95000000000014
 21
224.7105516132644
 31
0.0
  0
LINE
  5
16C
330
1F
100
AcDbEntity
  8
0
  6
DASHED
 62
     7
100
AcDbLine
 10
97.55000000000011
 20
224.7105516132644
 30
0.0
 11
97.72500000000012
 21
224.7105516132644
 31
0.0
  0
LINE
  5
16D
330
1F
100
AcDbEntity
  8
0
  6
DASHED
 62
     7
100
AcDbLine
 10
96.70500000000008
 20
224.7105516132644
 30
0.0
 11
97.2550000000001
 21
224.7105516132644
 31
0.0
  0
LINE
  5
16E
330
1F
100
AcDbEntity
  8
0
  6
DASHED
 62
     7
100
AcDbLine
 10
98.27500000000013
 20
224.7105516132644
 30
0.0
 11
98.7450000000001
 21
224.7105516132644
 31
0.0
  0
LINE
  5
16F
330
1F
100
AcDbEntity
  8
0
  6
DASHED
 62
     7
100
AcDbLine
 10
97.72500000000012
 20
224.7105516132644
 30
0.0
 11
98.27500000000013
 21
224.7105516132644
 31
0.0
  0
LINE
  5
170
330
1F
100
AcDbEntity
  8
0
  6
DASHED
 62
     7
100
AcDbLine
 10
98.7450000000001
 20
224.7105516132644
 30
0.0
 11
98.95000000000014
 21
224.7105516132644
 31
0.0
  0
LINE
  5
171
330
1F
100
AcDbEntity
  8
0
  6
DASHED
 62
     7
100
AcDbLine
 10
98.95000000000014
 20
224.7105516132644
 30
0.0
 11
99.29500000000012
 21
224.7105516132644
 31
0.0
  0
LINE
  5
172
330
1F
100
AcDbEntity
  8
0
  6
DASHED
 62
     7
100
AcDbLine
 10
96.23500000000011
 20
224.7105516132644
 30
0.0
 11
96.70500000000008
 21
224.7105516132644
 31
0.0
  0
LINE
  5
173
330
1F
100
AcDbEntity
  8
0
  6
DASHED
 62
     7
100
AcDbLine
 10
91.95000000000014
 20
224.7105516132644
 30
0.0
 11
92.15500000000013
 21
224.7105516132644
 31
0.0
  0
LINE
  5
174
330
1F
100
AcDbEntity
  8
0
  6
DASHED
 62
     7
100
AcDbLine
 10
92.15500000000013
 20
224.7105516132644
 30
0.0
 11
92.6250000000001
 21
224.7105516132644
 31
0.0
  0
LINE
  5
175
330
1F
100
AcDbEntity
  8
0
  6
DASHED
 62
     7
100
AcDbLine
 10
94.66500000000012
 20
224.7105516132644
 30
0.0
 11
95.21500000000013
 21
224.7105516132644
 31
0.0
  0
LINE
  5
176
330
1F
100
AcDbEntity
  8
0
  6
DASHED
 62
     7
100
AcDbLine
 10
94.19500000000009
 20
224.7105516132644
 30
0.0
 11
94.66500000000012
 21
224.7105516132644
 31
0.0
  0
LINE
  5
177
330
1F
100
AcDbEntity
  8
0
  6
DASHED
 62
     7
100
AcDbLine
 10
93.64500000000008
 20
224.7105516132644
 30
0.0
 11
94.19500000000009
 21
224.7105516132644
 31
0.0
  0
LINE
  5
178
330
1F
100
AcDbEntity
  8
0
  6
DASHED
 62
     7
100
AcDbLine
 10
93.17500000000011
 20
224.7105516132644
 30
0.0
 11
93.35000000000012
 21
224.7105516132644
 31
0.0
  0
LINE
  5
179
330
1F
100
AcDbEntity
  8
0
  6
DASHED
 62
     7
100
AcDbLine
 10
93.35000000000012
 20
224.7105516132644
 30
0.0
 11
93.64500000000008
 21
224.7105516132644
 31
0.0
  0
LINE
  5
17A
330
1F
100
AcDbEntity
  8
0
  6
DASHED
 62
     7
100
AcDbLine
 10
95.21500000000013
 20
224.7105516132644
 30
0.0
 11
95.6850000000001
 21
224.7105516132644
 31
0.0
  0
LINE
  5
17B
330
1F
100
AcDbEntity
  8
0
  6
DASHED
 62
     7
100
AcDbLine
 10
89.60000000000012
 20
224.7105516132644
 30
0.0
 11
91.60500000000012
 21
224.7105516132644
 31
0.0
  0
LINE
  5
17C
330
1F
100
AcDbEntity
  8
0
  6
DASHED
 62
     7
100
AcDbLine
 10
92.6250000000001
 20
224.7105516132644
 30
0.0
 11
93.17500000000011
 21
224.7105516132644
 31
0.0
  0
LINE
  5
17D
330
1F
100
AcDbEntity
  8
0
  6
DASHED
 62
     7
100
AcDbLine
 10
95.6850000000001
 20
224.7105516132644
 30
0.0
 11
96.23500000000011
 21
224.7105516132644
 31
0.0
  0
LINE
  5
17E
330
1F
100
AcDbEntity
  8
0
  6
DASHED
 62
     7
100
AcDbLine
 10
97.2550000000001
 20
224.7105516132644
 30
0.0
 11
97.55000000000011
 21
224.7105516132644
 31
0.0
  0
LINE
  5
17F
330
1F
100
AcDbEntity
  8
0
  6
DASHED
 62
     7
100
AcDbLine
 10
91.60500000000012
 20
224.7105516132644
 30
0.0
 11
91.95000000000014
 21
224.7105516132644
 31
0.0
  0
LINE
  5
180
330
1F
100
AcDbEntity
  8
0
  6
DASHED
 62
     7
100
AcDbLine
 10
76.55000000000003
 20
231.3605516132647
 30
0.0
 11
76.55000000000003
 21
231.3105516132646
 31
0.0
  0
LINE
  5
181
330
1F
100
AcDbEntity
  8
0
  6
DASHED
 62
     7
100
AcDbLine
 10
75.23500000000003
 20
229.3105516132646
 30
0.0
 11
75.23500000000003
 21
230.6105516132646
 31
0.0
  0
LINE
  5
182
330
1F
100
AcDbEntity
  8
0
  6
DASHED
 62
     7
100
AcDbLine
 10
75.23500000000003
 20
230.6105516132646
 30
0.0
 11
75.70500000000003
 21
230.6105516132646
 31
0.0
  0
LINE
  5
183
330
1F
100
AcDbEntity
  8
0
  6
DASHED
 62
     7
100
AcDbLine
 10
75.70500000000003
 20
230.6105516132646
 30
0.0
 11
75.70500000000003
 21
229.3105516132646
 31
0.0
  0
LINE
  5
184
330
1F
100
AcDbEntity
  8
0
  6
DASHED
 62
     7
100
AcDbLine
 10
75.70500000000003
 20
229.3105516132646
 30
0.0
 11
76.25500000000004
 21
229.3105516132646
 31
0.0
  0
LINE
  5
185
330
1F
100
AcDbEntity
  8
0
  6
DASHED
 62
     7
100
AcDbLine
 10
76.25500000000004
 20
230.6105516132646
 30
0.0
 11
76.72500000000004
 21
230.6105516132646
 31
0.0
  0
LINE
  5
186
330
1F
100
AcDbEntity
  8
0
  6
DASHED
 62
     7
100
AcDbLine
 10
77.27500000000005
 20
229.3105516132646
 30
0.0
 11
77.27500000000005
 21
230.6105516132646
 31
0.0
  0
LINE
  5
187
330
1F
100
AcDbEntity
  8
0
  6
DASHED
 62
     7
100
AcDbLine
 10
76.25500000000004
 20
229.3105516132646
 30
0.0
 11
76.25500000000004
 21
230.6105516132646
 31
0.0
  0
LINE
  5
188
330
1F
100
AcDbEntity
  8
0
  6
DASHED
 62
     7
100
AcDbLine
 10
76.72500000000004
 20
230.6105516132646
 30
0.0
 11
76.72500000000004
 21
229.3105516132646
 31
0.0
  0
LINE
  5
189
330
1F
100
AcDbEntity
  8
0
  6
DASHED
 62
     7
100
AcDbLine
 10
76.72500000000004
 20
229.3105516132646
 30
0.0
 11
77.27500000000005
 21
229.3105516132646
 31
0.0
  0
LINE
  5
18A
330
1F
100
AcDbEntity
  8
0
  6
DASHED
 62
     7
100
AcDbLine
 10
77.27500000000005
 20
230.6105516132646
 30
0.0
 11
77.74500000000005
 21
230.6105516132646
 31
0.0
  0
LINE
  5
18B
330
1F
100
AcDbEntity
  8
0
  6
DASHED
 62
     7
100
AcDbLine
 10
76.05000000000003
 20
222.8105516132646
 30
0.0
 11
76.05000000000003
 21
222.7105516132646
 31
0.0
  0
LINE
  5
18C
330
1F
100
AcDbEntity
  8
0
  6
DASHED
 62
     7
100
AcDbLine
 10
72.85000000000004
 20
222.7105516132646
 30
0.0
 11
76.05000000000003
 21
222.7105516132646
 31
0.0
  0
LINE
  5
18D
330
1F
100
AcDbEntity
  8
0
  6
DASHED
 62
     7
100
AcDbLine
 10
73.19500000000004
 20
231.3105516132646
 30
0.0
 11
73.19500000000004
 21
230.6105516132646
 31
0.0
  0
LINE
  5
18E
330
1F
100
AcDbEntity
  8
0
  6
DASHED
 62
     7
100
AcDbLine
 10
72.64500000000005
 20
231.3105516132646
 30
0.0
 11
72.64500000000005
 21
230.6105516132646
 31
0.0
  0
LINE
  5
18F
330
1F
100
AcDbEntity
  8
0
  6
DASHED
 62
     7
100
AcDbLine
 10
71.15500000000004
 20
231.3105516132646
 30
0.0
 11
70.95000000000003
 21
231.3105516132646
 31
0.0
  0
LINE
  5
190
330
1F
100
AcDbEntity
  8
0
  6
DASHED
 62
     7
100
AcDbLine
 10
74.21500000000005
 20
231.3105516132646
 30
0.0
 11
74.21500000000005
 21
230.6105516132646
 31
0.0
  0
LINE
  5
191
330
1F
100
AcDbEntity
  8
0
  6
DASHED
 62
     7
100
AcDbLine
 10
71.62500000000004
 20
231.3105516132646
 30
0.0
 11
71.15500000000004
 21
231.3105516132646
 31
0.0
  0
LINE
  5
192
330
1F
100
AcDbEntity
  8
0
  6
DASHED
 62
     7
100
AcDbLine
 10
71.62500000000004
 20
231.3105516132646
 30
0.0
 11
71.62500000000004
 21
230.6105516132646
 31
0.0
  0
LINE
  5
193
330
1F
100
AcDbEntity
  8
0
  6
DASHED
 62
     7
100
AcDbLine
 10
72.17500000000005
 20
231.3105516132646
 30
0.0
 11
72.17500000000005
 21
230.6105516132646
 31
0.0
  0
LINE
  5
194
330
1F
100
AcDbEntity
  8
0
  6
DASHED
 62
     7
100
AcDbLine
 10
75.23500000000003
 20
231.3105516132646
 30
0.0
 11
75.23500000000003
 21
230.6105516132646
 31
0.0
  0
LINE
  5
195
330
1F
100
AcDbEntity
  8
0
  6
DASHED
 62
     7
100
AcDbLine
 10
75.70500000000003
 20
231.3105516132646
 30
0.0
 11
75.70500000000003
 21
230.6105516132646
 31
0.0
  0
LINE
  5
196
330
1F
100
AcDbEntity
  8
0
  6
DASHED
 62
     7
100
AcDbLine
 10
74.68500000000004
 20
231.3105516132646
 30
0.0
 11
74.68500000000004
 21
230.6105516132646
 31
0.0
  0
LINE
  5
197
330
1F
100
AcDbEntity
  8
0
  6
DASHED
 62
     7
100
AcDbLine
 10
76.25500000000004
 20
231.3105516132646
 30
0.0
 11
76.25500000000004
 21
230.6105516132646
 31
0.0
  0
LINE
  5
198
330
1F
100
AcDbEntity
  8
0
  6
DASHED
 62
     7
100
AcDbLine
 10
76.72500000000004
 20
231.3105516132646
 30
0.0
 11
76.72500000000004
 21
230.6105516132646
 31
0.0
  0
LINE
  5
199
330
1F
100
AcDbEntity
  8
0
  6
DASHED
 62
     7
100
AcDbLine
 10
77.27500000000005
 20
231.3105516132646
 30
0.0
 11
77.27500000000005
 21
230.6105516132646
 31
0.0
  0
LINE
  5
19A
330
1F
100
AcDbEntity
  8
0
  6
DASHED
 62
     7
100
AcDbLine
 10
72.35000000000004
 20
231.3105516132646
 30
0.0
 11
72.17500000000005
 21
231.3105516132646
 31
0.0
  0
LINE
  5
19B
330
1F
100
AcDbEntity
  8
0
  6
DASHED
 62
     7
100
AcDbLine
 10
72.64500000000005
 20
231.3105516132646
 30
0.0
 11
72.35000000000004
 21
231.3105516132646
 31
0.0
  0
LINE
  5
19C
330
1F
100
AcDbEntity
  8
0
  6
DASHED
 62
     7
100
AcDbLine
 10
73.19500000000004
 20
231.3105516132646
 30
0.0
 11
72.64500000000005
 21
231.3105516132646
 31
0.0
  0
LINE
  5
19D
330
1F
100
AcDbEntity
  8
0
  6
DASHED
 62
     7
100
AcDbLine
 10
73.66500000000003
 20
231.3105516132646
 30
0.0
 11
73.19500000000004
 21
231.3105516132646
 31
0.0
  0
LINE
  5
19E
330
1F
100
AcDbEntity
  8
0
  6
DASHED
 62
     7
100
AcDbLine
 10
72.17500000000005
 20
231.3105516132646
 30
0.0
 11
71.62500000000004
 21
231.3105516132646
 31
0.0
  0
LINE
  5
19F
330
1F
100
AcDbEntity
  8
0
  6
DASHED
 62
     7
100
AcDbLine
 10
78.29500000000006
 20
231.3105516132646
 30
0.0
 11
77.95000000000003
 21
231.3105516132646
 31
0.0
  0
LINE
  5
1A0
330
1F
100
AcDbEntity
  8
0
  6
DASHED
 62
     7
100
AcDbLine
 10
77.27500000000005
 20
231.3105516132646
 30
0.0
 11
76.72500000000004
 21
231.3105516132646
 31
0.0
  0
LINE
  5
1A1
330
1F
100
AcDbEntity
  8
0
  6
DASHED
 62
     7
100
AcDbLine
 10
77.74500000000005
 20
231.3105516132646
 30
0.0
 11
77.27500000000005
 21
231.3105516132646
 31
0.0
  0
LINE
  5
1A2
330
1F
100
AcDbEntity
  8
0
  6
DASHED
 62
     7
100
AcDbLine
 10
75.70500000000003
 20
231.3105516132646
 30
0.0
 11
75.23500000000003
 21
231.3105516132646
 31
0.0
  0
LINE
  5
1A3
330
1F
100
AcDbEntity
  8
0
  6
DASHED
 62
     7
100
AcDbLine
 10
76.25500000000004
 20
231.3105516132646
 30
0.0
 11
75.70500000000003
 21
231.3105516132646
 31
0.0
  0
LINE
  5
1A4
330
1F
100
AcDbEntity
  8
0
  6
DASHED
 62
     7
100
AcDbLine
 10
76.72500000000004
 20
231.3105516132646
 30
0.0
 11
76.55000000000003
 21
231.3105516132646
 31
0.0
  0
LINE
  5
1A5
330
1F
100
AcDbEntity
  8
0
  6
DASHED
 62
     7
100
AcDbLine
 10
76.55000000000003
 20
231.3105516132646
 30
0.0
 11
76.25500000000004
 21
231.3105516132646
 31
0.0
  0
LINE
  5
1A6
330
1F
100
AcDbEntity
  8
0
  6
DASHED
 62
     7
100
AcDbLine
 10
74.68500000000004
 20
231.3105516132646
 30
0.0
 11
74.21500000000005
 21
231.3105516132646
 31
0.0
  0
LINE
  5
1A7
330
1F
100
AcDbEntity
  8
0
  6
DASHED
 62
     7
100
AcDbLine
 10
74.21500000000005
 20
231.3105516132646
 30
0.0
 11
73.66500000000003
 21
231.3105516132646
 31
0.0
  0
LINE
  5
1A8
330
1F
100
AcDbEntity
  8
0
  6
DASHED
 62
     7
100
AcDbLine
 10
75.23500000000003
 20
231.3105516132646
 30
0.0
 11
74.68500000000004
 21
231.3105516132646
 31
0.0
  0
LINE
  5
1A9
330
1F
100
AcDbEntity
  8
0
  6
DASHED
 62
     7
100
AcDbLine
 10
73.66500000000003
 20
231.3105516132646
 30
0.0
 11
73.66500000000003
 21
230.6105516132646
 31
0.0
  0
LINE
  5
1AA
330
1F
100
AcDbEntity
  8
0
  6
DASHED
 62
     7
100
AcDbLine
 10
78.90000000000002
 20
226.1105516132646
 30
0.0
 11
78.90000000000002
 21
227.5105516132646
 31
0.0
  0
LINE
  5
1AB
330
1F
100
AcDbEntity
  8
0
  6
DASHED
 62
     7
100
AcDbLine
 10
77.45000000000003
 20
226.1105516132646
 30
0.0
 11
78.90000000000002
 21
226.1105516132646
 31
0.0
  0
LINE
  5
1AC
330
1F
100
AcDbEntity
  8
0
  6
DASHED
 62
     7
100
AcDbLine
 10
70.00000000000004
 20
226.1105516132646
 30
0.0
 11
71.45000000000003
 21
226.1105516132646
 31
0.0
  0
LINE
  5
1AD
330
1F
100
AcDbEntity
  8
0
  6
DASHED
 62
     7
100
AcDbLine
 10
70.00000000000004
 20
227.5105516132646
 30
0.0
 11
70.00000000000004
 21
226.1105516132646
 31
0.0
  0
LINE
  5
1AE
330
1F
100
AcDbEntity
  8
0
  6
DASHED
 62
     7
100
AcDbLine
 10
70.00000000000004
 20
227.5105516132646
 30
0.0
 11
70.00000000000004
 21
227.7105516132646
 31
0.0
  0
LINE
  5
1AF
330
1F
100
AcDbEntity
  8
0
  6
DASHED
 62
     7
100
AcDbLine
 10
71.45000000000003
 20
226.1105516132646
 30
0.0
 11
77.45000000000003
 21
226.1105516132646
 31
0.0
  0
LINE
  5
1B0
330
1F
100
AcDbEntity
  8
0
  6
DASHED
 62
     7
100
AcDbLine
 10
70.00000000000004
 20
227.7105516132646
 30
0.0
 11
78.90000000000002
 21
227.7105516132646
 31
0.0
  0
LINE
  5
1B1
330
1F
100
AcDbEntity
  8
0
  6
DASHED
 62
     7
100
AcDbLine
 10
78.90000000000002
 20
227.5105516132646
 30
0.0
 11
70.00000000000004
 21
227.5105516132646
 31
0.0
  0
LINE
  5
1B2
330
1F
100
AcDbEntity
  8
0
  6
DASHED
 62
     7
100
AcDbLine
 10
72.64500000000005
 20
229.3105516132646
 30
0.0
 11
73.19500000000004
 21
229.3105516132646
 31
0.0
  0
LINE
  5
1B3
330
1F
100
AcDbEntity
  8
0
  6
DASHED
 62
     7
100
AcDbLine
 10
71.62500000000004
 20
229.3105516132646
 30
0.0
 11
72.17500000000005
 21
229.3105516132646
 31
0.0
  0
LINE
  5
1B4
330
1F
100
AcDbEntity
  8
0
  6
DASHED
 62
     7
100
AcDbLine
 10
71.45000000000003
 20
224.2105516132646
 30
0.0
 11
71.45000000000003
 21
224.7105516132646
 31
0.0
  0
LINE
  5
1B5
330
1F
100
AcDbEntity
  8
0
  6
DASHED
 62
     7
100
AcDbLine
 10
71.45000000000003
 20
225.2105516132646
 30
0.0
 11
71.45000000000003
 21
226.1105516132646
 31
0.0
  0
LINE
  5
1B6
330
1F
100
AcDbEntity
  8
0
  6
DASHED
 62
     7
100
AcDbLine
 10
71.45000000000003
 20
224.7105516132646
 30
0.0
 11
71.45000000000003
 21
225.2105516132646
 31
0.0
  0
LINE
  5
1B7
330
1F
100
AcDbEntity
  8
0
  6
DASHED
 62
     7
100
AcDbLine
 10
80.30000000000005
 20
231.3105516132646
 30
0.0
 11
78.29500000000006
 21
231.3105516132646
 31
0.0
  0
LINE
  5
1B8
330
1F
100
AcDbEntity
  8
0
  6
DASHED
 62
     7
100
AcDbLine
 10
77.95000000000003
 20
231.3105516132646
 30
0.0
 11
77.74500000000005
 21
231.3105516132646
 31
0.0
  0
LINE
  5
1B9
330
1F
100
AcDbEntity
  8
0
  6
DASHED
 62
     7
100
AcDbLine
 10
77.74500000000005
 20
231.3105516132646
 30
0.0
 11
77.74500000000005
 21
230.6105516132646
 31
0.0
  0
LINE
  5
1BA
330
1F
100
AcDbEntity
  8
0
  6
DASHED
 62
     7
100
AcDbLine
 10
78.29500000000006
 20
231.3105516132646
 30
0.0
 11
78.29500000000006
 21
230.6105516132646
 31
0.0
  0
LINE
  5
1BB
330
1F
100
AcDbEntity
  8
0
  6
DASHED
 62
     7
100
AcDbLine
 10
80.30000000000005
 20
230.6105516132646
 30
0.0
 11
80.30000000000005
 21
231.3105516132646
 31
0.0
  0
LINE
  5
1BC
330
1F
100
AcDbEntity
  8
0
  6
DASHED
 62
     7
100
AcDbLine
 10
78.90000000000002
 20
228.1105516132646
 30
0.0
 11
78.90000000000002
 21
227.7105516132646
 31
0.0
  0
LINE
  5
1BD
330
1F
100
AcDbEntity
  8
0
  6
DASHED
 62
     7
100
AcDbLine
 10
78.90000000000002
 20
224.7105516132646
 30
0.0
 11
78.45000000000003
 21
224.7105516132646
 31
0.0
  0
LINE
  5
1BE
330
1F
100
AcDbEntity
  8
0
  6
DASHED
 62
     7
100
AcDbLine
 10
80.30000000000005
 20
230.6105516132646
 30
0.0
 11
80.30000000000005
 21
226.1105516132646
 31
0.0
  0
LINE
  5
1BF
330
1F
100
AcDbEntity
  8
0
  6
DASHED
 62
     7
100
AcDbLine
 10
80.30000000000005
 20
224.7105516132646
 30
0.0
 11
80.30000000000005
 21
225.2105516132646
 31
0.0
  0
LINE
  5
1C0
330
1F
100
AcDbEntity
  8
0
  6
DASHED
 62
     7
100
AcDbLine
 10
79.45000000000003
 20
226.1105516132646
 30
0.0
 11
79.45000000000003
 21
228.1105516132646
 31
0.0
  0
LINE
  5
1C1
330
1F
100
AcDbEntity
  8
0
  6
DASHED
 62
     7
100
AcDbLine
 10
79.45000000000003
 20
225.2105516132646
 30
0.0
 11
79.45000000000003
 21
226.1105516132646
 31
0.0
  0
LINE
  5
1C2
330
1F
100
AcDbEntity
  8
0
  6
DASHED
 62
     7
100
AcDbLine
 10
79.45000000000003
 20
228.1105516132646
 30
0.0
 11
78.90000000000002
 21
228.1105516132646
 31
0.0
  0
LINE
  5
1C3
330
1F
100
AcDbEntity
  8
0
  6
DASHED
 62
     7
100
AcDbLine
 10
79.45000000000003
 20
224.7105516132646
 30
0.0
 11
78.90000000000002
 21
224.7105516132646
 31
0.0
  0
LINE
  5
1C4
330
1F
100
AcDbEntity
  8
0
  6
DASHED
 62
     7
100
AcDbLine
 10
79.45000000000003
 20
224.7105516132646
 30
0.0
 11
79.45000000000003
 21
225.2105516132646
 31
0.0
  0
LINE
  5
1C5
330
1F
100
AcDbEntity
  8
0
  6
DASHED
 62
     7
100
AcDbLine
 10
78.90000000000002
 20
226.1105516132646
 30
0.0
 11
78.90000000000002
 21
225.2105516132646
 31
0.0
  0
LINE
  5
1C6
330
1F
100
AcDbEntity
  8
0
  6
DASHED
 62
     7
100
AcDbLine
 10
78.90000000000002
 20
224.7105516132646
 30
0.0
 11
78.90000000000002
 21
225.2105516132646
 31
0.0
  0
LINE
  5
1C7
330
1F
100
AcDbEntity
  8
0
  6
DASHED
 62
     7
100
AcDbLine
 10
79.45000000000003
 20
226.1105516132646
 30
0.0
 11
80.30000000000005
 21
226.1105516132646
 31
0.0
  0
LINE
  5
1C8
330
1F
100
AcDbEntity
  8
0
  6
DASHED
 62
     7
100
AcDbLine
 10
80.30000000000005
 20
226.1105516132646
 30
0.0
 11
80.30000000000005
 21
225.2105516132646
 31
0.0
  0
LINE
  5
1C9
330
1F
100
AcDbEntity
  8
0
  6
DASHED
 62
     7
100
AcDbLine
 10
80.30000000000005
 20
225.2105516132646
 30
0.0
 11
79.45000000000003
 21
225.2105516132646
 31
0.0
  0
LINE
  5
1CA
330
1F
100
AcDbEntity
  8
0
  6
DASHED
 62
     7
100
AcDbLine
 10
80.30000000000005
 20
224.7105516132646
 30
0.0
 11
79.45000000000003
 21
224.7105516132646
 31
0.0
  0
LINE
  5
1CB
330
1F
100
AcDbEntity
  8
0
  6
DASHED
 62
     7
100
AcDbLine
 10
77.74500000000005
 20
230.6105516132646
 30
0.0
 11
77.74500000000005
 21
229.3105516132646
 31
0.0
  0
LINE
  5
1CC
330
1F
100
AcDbEntity
  8
0
  6
DASHED
 62
     7
100
AcDbLine
 10
77.74500000000005
 20
229.3105516132646
 30
0.0
 11
78.29500000000006
 21
229.3105516132646
 31
0.0
  0
LINE
  5
1CD
330
1F
100
AcDbEntity
  8
0
  6
DASHED
 62
     7
100
AcDbLine
 10
78.29500000000006
 20
229.3105516132646
 30
0.0
 11
78.29500000000006
 21
230.6105516132646
 31
0.0
  0
LINE
  5
1CE
330
1F
100
AcDbEntity
  8
0
  6
DASHED
 62
     7
100
AcDbLine
 10
78.29500000000006
 20
230.6105516132646
 30
0.0
 11
80.30000000000005
 21
230.6105516132646
 31
0.0
  0
LINE
  5
1CF
330
1F
100
AcDbEntity
  8
0
  6
DASHED
 62
     7
100
AcDbLine
 10
78.90000000000002
 20
227.7105516132646
 30
0.0
 11
78.90000000000002
 21
227.5105516132646
 31
0.0
  0
LINE
  5
1D0
330
1F
100
AcDbEntity
  8
0
  6
DASHED
 62
     7
100
AcDbLine
 10
77.45000000000003
 20
225.2105516132646
 30
0.0
 11
77.45000000000003
 21
224.7105516132646
 31
0.0
  0
LINE
  5
1D1
330
1F
100
AcDbEntity
  8
0
  6
DASHED
 62
     7
100
AcDbLine
 10
77.45000000000003
 20
224.7105516132646
 30
0.0
 11
77.45000000000003
 21
224.2105516132646
 31
0.0
  0
LINE
  5
1D2
330
1F
100
AcDbEntity
  8
0
  6
DASHED
 62
     7
100
AcDbLine
 10
77.45000000000003
 20
226.1105516132646
 30
0.0
 11
77.45000000000003
 21
225.2105516132646
 31
0.0
  0
LINE
  5
1D3
330
1F
100
AcDbEntity
  8
0
  6
DASHED
 62
     7
100
AcDbLine
 10
78.45000000000003
 20
224.7105516132646
 30
0.0
 11
77.45000000000003
 21
224.7105516132646
 31
0.0
  0
LINE
  5
1D4
330
1F
100
AcDbEntity
  8
0
  6
DASHED
 62
     7
100
AcDbLine
 10
78.90000000000002
 20
225.2105516132646
 30
0.0
 11
77.45000000000003
 21
225.2105516132646
 31
0.0
  0
LINE
  5
1D5
330
1F
100
AcDbEntity
  8
0
  6
DASHED
 62
     7
100
AcDbLine
 10
77.95000000000003
 20
231.3605516132647
 30
0.0
 11
77.95000000000003
 21
231.3105516132646
 31
0.0
  0
LINE
  5
1D6
330
1F
100
AcDbEntity
  8
0
  6
DASHED
 62
     7
100
AcDbLine
 10
73.19500000000004
 20
229.3105516132646
 30
0.0
 11
73.19500000000004
 21
230.6105516132646
 31
0.0
  0
LINE
  5
1D7
330
1F
100
AcDbEntity
  8
0
  6
DASHED
 62
     7
100
AcDbLine
 10
73.19500000000004
 20
230.6105516132646
 30
0.0
 11
73.66500000000003
 21
230.6105516132646
 31
0.0
  0
LINE
  5
1D8
330
1F
100
AcDbEntity
  8
0
  6
DASHED
 62
     7
100
AcDbLine
 10
73.66500000000003
 20
230.6105516132646
 30
0.0
 11
73.66500000000003
 21
229.3105516132646
 31
0.0
  0
LINE
  5
1D9
330
1F
100
AcDbEntity
  8
0
  6
DASHED
 62
     7
100
AcDbLine
 10
74.21500000000005
 20
229.3105516132646
 30
0.0
 11
74.21500000000005
 21
230.6105516132646
 31
0.0
  0
LINE
  5
1DA
330
1F
100
AcDbEntity
  8
0
  6
DASHED
 62
     7
100
AcDbLine
 10
74.21500000000005
 20
230.6105516132646
 30
0.0
 11
74.68500000000004
 21
230.6105516132646
 31
0.0
  0
LINE
  5
1DB
330
1F
100
AcDbEntity
  8
0
  6
DASHED
 62
     7
100
AcDbLine
 10
73.66500000000003
 20
229.3105516132646
 30
0.0
 11
74.21500000000005
 21
229.3105516132646
 31
0.0
  0
LINE
  5
1DC
330
1F
100
AcDbEntity
  8
0
  6
DASHED
 62
     7
100
AcDbLine
 10
72.85000000000004
 20
222.8105516132646
 30
0.0
 11
72.85000000000004
 21
222.7105516132646
 31
0.0
  0
LINE
  5
1DD
330
1F
100
AcDbEntity
  8
0
  6
DASHED
 62
     7
100
AcDbLine
 10
74.68500000000004
 20
229.3105516132646
 30
0.0
 11
75.23500000000003
 21
229.3105516132646
 31
0.0
  0
LINE
  5
1DE
330
1F
100
AcDbEntity
  8
0
  6
DASHED
 62
     7
100
AcDbLine
 10
74.68500000000004
 20
230.6105516132646
 30
0.0
 11
74.68500000000004
 21
229.3105516132646
 31
0.0
  0
LINE
  5
1DF
330
1F
100
AcDbEntity
  8
0
  6
DASHED
 62
     7
100
AcDbLine
 10
71.30000000000005
 20
224.1105516132646
 30
0.0
 11
71.45000000000003
 21
224.1105516132646
 31
0.0
  0
LINE
  5
1E0
330
1F
100
AcDbEntity
  8
0
  6
DASHED
 62
     7
100
AcDbLine
 10
70.45000000000003
 20
224.6605516132647
 30
0.0
 11
70.45000000000003
 21
224.7105516132646
 31
0.0
  0
LINE
  5
1E1
330
1F
100
AcDbEntity
  8
0
  6
DASHED
 62
     7
100
AcDbLine
 10
70.00000000000004
 20
224.7105516132646
 30
0.0
 11
70.00000000000004
 21
225.2105516132646
 31
0.0
  0
LINE
  5
1E2
330
1F
100
AcDbEntity
  8
0
  6
DASHED
 62
     7
100
AcDbLine
 10
69.45000000000003
 20
224.7105516132646
 30
0.0
 11
69.45000000000003
 21
225.2105516132646
 31
0.0
  0
LINE
  5
1E3
330
1F
100
AcDbEntity
  8
0
  6
DASHED
 62
     7
100
AcDbLine
 10
70.45000000000003
 20
224.7105516132646
 30
0.0
 11
70.00000000000004
 21
224.7105516132646
 31
0.0
  0
LINE
  5
1E4
330
1F
100
AcDbEntity
  8
0
  6
DASHED
 62
     7
100
AcDbLine
 10
70.00000000000004
 20
224.7105516132646
 30
0.0
 11
69.45000000000003
 21
224.7105516132646
 31
0.0
  0
LINE
  5
1E5
330
1F
100
AcDbEntity
  8
0
  6
DASHED
 62
     7
100
AcDbLine
 10
69.45000000000003
 20
224.7105516132646
 30
0.0
 11
68.60000000000004
 21
224.7105516132646
 31
0.0
  0
LINE
  5
1E6
330
1F
100
AcDbEntity
  8
0
  6
DASHED
 62
     7
100
AcDbLine
 10
71.45000000000003
 20
224.7105516132646
 30
0.0
 11
70.45000000000003
 21
224.7105516132646
 31
0.0
  0
LINE
  5
1E7
330
1F
100
AcDbEntity
  8
0
  6
DASHED
 62
     7
100
AcDbLine
 10
68.60000000000004
 20
225.2105516132646
 30
0.0
 11
68.60000000000004
 21
224.7105516132646
 31
0.0
  0
LINE
  5
1E8
330
1F
100
AcDbEntity
  8
0
  6
DASHED
 62
     7
100
AcDbLine
 10
77.45000000000003
 20
224.2105516132646
 30
0.0
 11
77.45000000000003
 21
223.5105516132646
 31
0.0
  0
LINE
  5
1E9
330
1F
100
AcDbEntity
  8
0
  6
DASHED
 62
     7
100
AcDbLine
 10
71.45000000000003
 20
224.2105516132646
 30
0.0
 11
77.45000000000003
 21
224.2105516132646
 31
0.0
  0
LINE
  5
1EA
330
1F
100
AcDbEntity
  8
0
  6
DASHED
 62
     7
100
AcDbLine
 10
70.95000000000003
 20
231.3605516132647
 30
0.0
 11
70.95000000000003
 21
231.3105516132646
 31
0.0
  0
LINE
  5
1EB
330
1F
100
AcDbEntity
  8
0
  6
DASHED
 62
     7
100
AcDbLine
 10
72.35000000000004
 20
231.3605516132647
 30
0.0
 11
72.35000000000004
 21
231.3105516132646
 31
0.0
  0
LINE
  5
1EC
330
1F
100
AcDbEntity
  8
0
  6
DASHED
 62
     7
100
AcDbLine
 10
71.15500000000004
 20
229.3105516132646
 30
0.0
 11
71.15500000000004
 21
230.6105516132646
 31
0.0
  0
LINE
  5
1ED
330
1F
100
AcDbEntity
  8
0
  6
DASHED
 62
     7
100
AcDbLine
 10
71.15500000000004
 20
230.6105516132646
 30
0.0
 11
71.62500000000004
 21
230.6105516132646
 31
0.0
  0
LINE
  5
1EE
330
1F
100
AcDbEntity
  8
0
  6
DASHED
 62
     7
100
AcDbLine
 10
72.64500000000005
 20
230.6105516132646
 30
0.0
 11
72.64500000000005
 21
229.3105516132646
 31
0.0
  0
LINE
  5
1EF
330
1F
100
AcDbEntity
  8
0
  6
DASHED
 62
     7
100
AcDbLine
 10
71.62500000000004
 20
230.6105516132646
 30
0.0
 11
71.62500000000004
 21
229.3105516132646
 31
0.0
  0
LINE
  5
1F0
330
1F
100
AcDbEntity
  8
0
  6
DASHED
 62
     7
100
AcDbLine
 10
72.17500000000005
 20
229.3105516132646
 30
0.0
 11
72.17500000000005
 21
230.6105516132646
 31
0.0
  0
LINE
  5
1F1
330
1F
100
AcDbEntity
  8
0
  6
DASHED
 62
     7
100
AcDbLine
 10
72.17500000000005
 20
230.6105516132646
 30
0.0
 11
72.64500000000005
 21
230.6105516132646
 31
0.0
  0
LINE
  5
1F2
330
1F
100
AcDbEntity
  8
0
  6
DASHED
 62
     7
100
AcDbLine
 10
71.45000000000003
 20
223.5105516132646
 30
0.0
 11
71.45000000000003
 21
222.8105516132646
 31
0.0
  0
LINE
  5
1F3
330
1F
100
AcDbEntity
  8
0
  6
DASHED
 62
     7
100
AcDbLine
 10
71.45000000000003
 20
224.2105516132646
 30
0.0
 11
71.45000000000003
 21
223.5105516132646
 31
0.0
  0
LINE
  5
1F4
330
1F
100
AcDbEntity
  8
0
  6
DASHED
 62
     7
100
AcDbLine
 10
76.05000000000003
 20
222.7105516132646
 30
0.0
 11
76.05000000000003
 21
222.6605516132647
 31
0.0
  0
LINE
  5
1F5
330
1F
100
AcDbEntity
  8
0
  6
DASHED
 62
     7
100
AcDbLine
 10
72.85000000000004
 20
222.7105516132646
 30
0.0
 11
72.85000000000004
 21
222.6605516132647
 31
0.0
  0
LINE
  5
1F6
330
1F
100
AcDbEntity
  8
0
  6
DASHED
 62
     7
100
AcDbLine
 10
77.60000000000004
 20
224.1105516132646
 30
0.0
 11
77.45000000000003
 21
224.1105516132646
 31
0.0
  0
LINE
  5
1F7
330
1F
100
AcDbEntity
  8
0
  6
DASHED
 62
     7
100
AcDbLine
 10
78.45000000000003
 20
224.6605516132647
 30
0.0
 11
78.45000000000003
 21
224.7105516132646
 31
0.0
  0
LINE
  5
1F8
330
1F
100
AcDbEntity
  8
0
  6
DASHED
 62
     7
100
AcDbLine
 10
72.85000000000004
 20
222.8105516132646
 30
0.0
 11
71.45000000000003
 21
222.8105516132646
 31
0.0
  0
LINE
  5
1F9
330
1F
100
AcDbEntity
  8
0
  6
DASHED
 62
     7
100
AcDbLine
 10
77.45000000000003
 20
223.5105516132646
 30
0.0
 11
77.45000000000003
 21
222.8105516132646
 31
0.0
  0
LINE
  5
1FA
330
1F
100
AcDbEntity
  8
0
  6
DASHED
 62
     7
100
AcDbLine
 10
76.05000000000003
 20
222.8105516132646
 30
0.0
 11
77.45000000000003
 21
222.8105516132646
 31
0.0
  0
LINE
  5
1FB
330
1F
100
AcDbEntity
  8
0
  6
DASHED
 62
     7
100
AcDbLine
 10
71.45000000000003
 20
223.5105516132646
 30
0.0
 11
77.45000000000003
 21
223.5105516132646
 31
0.0
  0
LINE
  5
1FC
330
1F
100
AcDbEntity
  8
0
  6
DASHED
 62
     7
100
AcDbLine
 10
70.95000000000003
 20
231.3105516132646
 30
0.0
 11
70.60500000000003
 21
231.3105516132646
 31
0.0
  0
LINE
  5
1FD
330
1F
100
AcDbEntity
  8
0
  6
DASHED
 62
     7
100
AcDbLine
 10
71.15500000000004
 20
231.3105516132646
 30
0.0
 11
71.15500000000004
 21
230.6105516132646
 31
0.0
  0
LINE
  5
1FE
330
1F
100
AcDbEntity
  8
0
  6
DASHED
 62
     7
100
AcDbLine
 10
70.60500000000003
 20
231.3105516132646
 30
0.0
 11
70.60500000000003
 21
230.6105516132646
 31
0.0
  0
LINE
  5
1FF
330
1F
100
AcDbEntity
  8
0
  6
DASHED
 62
     7
100
AcDbLine
 10
68.60000000000004
 20
231.3105516132646
 30
0.0
 11
68.60000000000004
 21
230.6105516132646
 31
0.0
  0
LINE
  5
200
330
1F
100
AcDbEntity
  8
0
  6
DASHED
 62
     7
100
AcDbLine
 10
68.60000000000004
 20
226.1105516132646
 30
0.0
 11
68.60000000000004
 21
230.6105516132646
 31
0.0
  0
LINE
  5
201
330
1F
100
AcDbEntity
  8
0
  6
DASHED
 62
     7
100
AcDbLine
 10
68.60000000000004
 20
230.6105516132646
 30
0.0
 11
70.60500000000003
 21
230.6105516132646
 31
0.0
  0
LINE
  5
202
330
1F
100
AcDbEntity
  8
0
  6
DASHED
 62
     7
100
AcDbLine
 10
70.60500000000003
 20
230.6105516132646
 30
0.0
 11
70.60500000000003
 21
229.3105516132646
 31
0.0
  0
LINE
  5
203
330
1F
100
AcDbEntity
  8
0
  6
DASHED
 62
     7
100
AcDbLine
 10
70.00000000000004
 20
227.7105516132646
 30
0.0
 11
70.00000000000004
 21
228.1105516132646
 31
0.0
  0
LINE
  5
204
330
1F
100
AcDbEntity
  8
0
  6
DASHED
 62
     7
100
AcDbLine
 10
70.00000000000004
 20
228.1105516132646
 30
0.0
 11
69.45000000000003
 21
228.1105516132646
 31
0.0
  0
LINE
  5
205
330
1F
100
AcDbEntity
  8
0
  6
DASHED
 62
     7
100
AcDbLine
 10
70.60500000000003
 20
229.3105516132646
 30
0.0
 11
71.15500000000004
 21
229.3105516132646
 31
0.0
  0
LINE
  5
206
330
1F
100
AcDbEntity
  8
0
  6
DASHED
 62
     7
100
AcDbLine
 10
68.60000000000004
 20
225.2105516132646
 30
0.0
 11
68.60000000000004
 21
226.1105516132646
 31
0.0
  0
LINE
  5
207
330
1F
100
AcDbEntity
  8
0
  6
DASHED
 62
     7
100
AcDbLine
 10
68.60000000000004
 20
226.1105516132646
 30
0.0
 11
69.45000000000003
 21
226.1105516132646
 31
0.0
  0
LINE
  5
208
330
1F
100
AcDbEntity
  8
0
  6
DASHED
 62
     7
100
AcDbLine
 10
69.45000000000003
 20
226.1105516132646
 30
0.0
 11
69.45000000000003
 21
225.2105516132646
 31
0.0
  0
LINE
  5
209
330
1F
100
AcDbEntity
  8
0
  6
DASHED
 62
     7
100
AcDbLine
 10
69.45000000000003
 20
225.2105516132646
 30
0.0
 11
68.60000000000004
 21
225.2105516132646
 31
0.0
  0
LINE
  5
20A
330
1F
100
AcDbEntity
  8
0
  6
DASHED
 62
     7
100
AcDbLine
 10
70.00000000000004
 20
225.2105516132646
 30
0.0
 11
70.00000000000004
 21
226.1105516132646
 31
0.0
  0
LINE
  5
20B
330
1F
100
AcDbEntity
  8
0
  6
DASHED
 62
     7
100
AcDbLine
 10
71.45000000000003
 20
225.2105516132646
 30
0.0
 11
70.00000000000004
 21
225.2105516132646
 31
0.0
  0
LINE
  5
20C
330
1F
100
AcDbEntity
  8
0
  6
DASHED
 62
     7
100
AcDbLine
 10
69.45000000000003
 20
228.1105516132646
 30
0.0
 11
69.45000000000003
 21
226.1105516132646
 31
0.0
  0
LINE
  5
20D
330
1F
100
AcDbEntity
  8
0
  6
DASHED
 62
     7
100
AcDbLine
 10
70.60500000000003
 20
231.3105516132646
 30
0.0
 11
68.60000000000004
 21
231.3105516132646
 31
0.0
  0
LINE
  5
20E
330
1F
100
AcDbEntity
  8
0
  6
Continuous
 62
     7
100
AcDbLine
 10
102.2500000000002
 20
245.0105516132646
 30
0.0
 11
102.7500000000002
 21
245.0105516132646
 31
0.0
  0
LINE
  5
20F
330
1F
100
AcDbEntity
  8
0
  6
Continuous
 62
     7
100
AcDbLine
 10
96.55000000000021
 20
245.0105516132646
 30
0.0
 11
97.05000000000021
 21
245.0105516132646
 31
0.0
  0
LINE
  5
210
330
1F
100
AcDbEntity
  8
0
  6
Continuous
 62
     7
100
AcDbLine
 10
87.55000000000021
 20
245.0105516132645
 30
0.0
 11
88.05000000000021
 21
245.0105516132645
 31
0.0
  0
LINE
  5
211
330
1F
100
AcDbEntity
  8
0
  6
Continuous
 62
     7
100
AcDbLine
 10
88.05000000000021
 20
243.0105516132645
 30
0.0
 11
88.05000000000021
 21
245.0105516132645
 31
0.0
  0
LINE
  5
212
330
1F
100
AcDbEntity
  8
0
  6
Continuous
 62
     7
100
AcDbLine
 10
82.35000000000016
 20
245.0105516132646
 30
0.0
 11
81.85000000000016
 21
245.0105516132646
 31
0.0
  0
LINE
  5
213
330
1F
100
AcDbEntity
  8
0
  6
Continuous
 62
     7
100
AcDbLine
 10
81.85000000000016
 20
243.0105516132647
 30
0.0
 11
88.05000000000021
 21
243.0105516132645
 31
0.0
  0
LINE
  5
214
330
1F
100
AcDbEntity
  8
0
  6
Continuous
 62
     7
100
AcDbLine
 10
87.55000000000021
 20
245.0105516132645
 30
0.0
 11
82.35000000000016
 21
245.0105516132646
 31
0.0
  0
LINE
  5
215
330
1F
100
AcDbEntity
  8
0
  6
Continuous
 62
     7
100
AcDbLine
 10
81.85000000000016
 20
245.0105516132646
 30
0.0
 11
81.85000000000016
 21
243.0105516132647
 31
0.0
  0
LINE
  5
216
330
1F
100
AcDbEntity
  8
0
  6
Continuous
 62
     7
100
AcDbLine
 10
85.40000000000002
 20
241.0105516132646
 30
0.0
 11
85.40000000000002
 21
239.3105516132642
 31
0.0
  0
LINE
  5
217
330
1F
100
AcDbEntity
  8
0
  6
Continuous
 62
     7
100
AcDbLine
 10
83.70000000000003
 20
239.3105516132642
 30
0.0
 11
83.70000000000003
 21
241.0105516132646
 31
0.0
  0
LINE
  5
218
330
1F
100
AcDbEntity
  8
0
  6
Continuous
 62
     7
100
AcDbLine
 10
80.35000000000007
 20
229.7605516132647
 30
0.0
 11
81.65000000000008
 21
229.7605516132647
 31
0.0
  0
LINE
  5
219
330
1F
100
AcDbEntity
  8
0
  6
Continuous
 62
     7
100
AcDbLine
 10
80.30000000000005
 20
229.7605516132647
 30
0.0
 11
80.35000000000007
 21
229.7605516132647
 31
0.0
  0
LINE
  5
21A
330
1F
100
AcDbEntity
  8
0
  6
Continuous
 62
     7
100
AcDbLine
 10
80.35000000000007
 20
226.2605516132647
 30
0.0
 11
81.65000000000008
 21
226.2605516132647
 31
0.0
  0
LINE
  5
21B
330
1F
100
AcDbEntity
  8
0
  6
Continuous
 62
     7
100
AcDbLine
 10
80.35000000000007
 20
226.2605516132647
 30
0.0
 11
80.35000000000007
 21
226.7605516132647
 31
0.0
  0
LINE
  5
21C
330
1F
100
AcDbEntity
  8
0
  6
Continuous
 62
     7
100
AcDbLine
 10
80.87898094212544
 20
226.7605516132647
 30
0.0
 11
80.35000000000007
 21
226.7605516132647
 31
0.0
  0
LINE
  5
21D
330
1F
100
AcDbEntity
  8
0
  6
Continuous
 62
     7
100
AcDbLine
 10
80.87898094212544
 20
229.2605516132647
 30
0.0
 11
80.35000000000007
 21
229.2605516132647
 31
0.0
  0
LINE
  5
21E
330
1F
100
AcDbEntity
  8
0
  6
Continuous
 62
     7
100
AcDbLine
 10
80.35000000000007
 20
229.2605516132647
 30
0.0
 11
80.35000000000007
 21
229.7605516132647
 31
0.0
  0
LINE
  5
21F
330
1F
100
AcDbEntity
  8
0
  6
Continuous
 62
     7
100
AcDbLine
 10
80.30000000000005
 20
226.2605516132647
 30
0.0
 11
80.35000000000007
 21
226.2605516132647
 31
0.0
  0
LINE
  5
220
330
1F
100
AcDbEntity
  8
0
  6
Continuous
 62
     7
100
AcDbLine
 10
80.35000000000007
 20
230.6605516132647
 30
0.0
 11
80.35000000000007
 21
231.3605516132647
 31
0.0
  0
LINE
  5
221
330
1F
100
AcDbEntity
  8
0
  6
Continuous
 62
     7
100
AcDbLine
 10
84.90000000000002
 20
238.8105516132642
 30
0.0
 11
84.20000000000003
 21
238.8105516132642
 31
0.0
  0
LINE
  5
222
330
1F
100
AcDbEntity
  8
0
  6
Continuous
 62
     7
100
AcDbLine
 10
81.65000000000008
 20
226.2605516132647
 30
0.0
 11
81.65000000000008
 21
229.7605516132647
 31
0.0
  0
LINE
  5
223
330
1F
100
AcDbEntity
  8
0
  6
Continuous
 62
     7
100
AcDbLine
 10
102.2500000000002
 20
245.0105516132646
 30
0.0
 11
97.05000000000021
 21
245.0105516132646
 31
0.0
  0
LINE
  5
224
330
1F
100
AcDbEntity
  8
0
  6
Continuous
 62
     7
100
AcDbLine
 10
96.55000000000021
 20
243.0105516132646
 30
0.0
 11
96.55000000000021
 21
245.0105516132646
 31
0.0
  0
LINE
  5
225
330
1F
100
AcDbEntity
  8
0
  6
Continuous
 62
     7
100
AcDbLine
 10
102.7500000000002
 20
243.0105516132646
 30
0.0
 11
102.7500000000002
 21
245.0105516132646
 31
0.0
  0
LINE
  5
226
330
1F
100
AcDbEntity
  8
0
  6
Continuous
 62
     7
100
AcDbLine
 10
89.05000000000021
 20
213.0105516132645
 30
0.0
 11
95.55000000000021
 21
213.0105516132645
 31
0.0
  0
LINE
  5
227
330
1F
100
AcDbEntity
  8
0
  6
Continuous
 62
     7
100
AcDbLine
 10
80.35000000000007
 20
225.3605516132646
 30
0.0
 11
89.55000000000011
 21
225.3605516132646
 31
0.0
  0
LINE
  5
228
330
1F
100
AcDbEntity
  8
0
  6
Continuous
 62
     7
100
AcDbLine
 10
89.55000000000011
 20
225.3605516132646
 30
0.0
 11
89.55000000000005
 21
224.6605516132644
 31
0.0
  0
LINE
  5
229
330
1F
100
AcDbEntity
  8
0
  6
Continuous
 62
     7
100
AcDbLine
 10
95.55000000000021
 20
211.0105516132646
 30
0.0
 11
95.55000000000021
 21
213.0105516132645
 31
0.0
  0
LINE
  5
22A
330
1F
100
AcDbEntity
  8
0
  6
Continuous
 62
     7
100
AcDbLine
 10
95.55000000000021
 20
211.0105516132646
 30
0.0
 11
96.05000000000021
 21
211.0105516132646
 31
0.0
  0
LINE
  5
22B
330
1F
100
AcDbEntity
  8
0
  6
Continuous
 62
     7
100
AcDbLine
 10
89.05000000000021
 20
211.0105516132645
 30
0.0
 11
89.05000000000021
 21
213.0105516132645
 31
0.0
  0
LINE
  5
22C
330
1F
100
AcDbEntity
  8
0
  6
Continuous
 62
     7
100
AcDbLine
 10
88.55000000000021
 20
211.0105516132645
 30
0.0
 11
89.05000000000021
 21
211.0105516132645
 31
0.0
  0
LINE
  5
22D
330
1F
100
AcDbEntity
  8
0
  6
Continuous
 62
     7
100
AcDbLine
 10
74.35000000000016
 20
211.0105516132645
 30
0.0
 11
73.85000000000016
 21
211.0105516132645
 31
0.0
  0
LINE
  5
22E
330
1F
100
AcDbEntity
  8
0
  6
Continuous
 62
     7
100
AcDbLine
 10
74.35000000000016
 20
213.0105516132645
 30
0.0
 11
74.35000000000016
 21
211.0105516132645
 31
0.0
  0
LINE
  5
22F
330
1F
100
AcDbEntity
  8
0
  6
Continuous
 62
     7
100
AcDbLine
 10
102.7500000000002
 20
243.0105516132646
 30
0.0
 11
107.0000000000001
 21
243.0105516132646
 31
0.0
  0
LINE
  5
230
330
1F
100
AcDbEntity
  8
0
  6
Continuous
 62
     7
100
AcDbLine
 10
96.55000000000021
 20
243.0105516132646
 30
0.0
 11
102.7500000000002
 21
243.0105516132646
 31
0.0
  0
LINE
  5
231
330
1F
100
AcDbEntity
  8
0
  6
Continuous
 62
     7
100
AcDbLine
 10
88.05000000000021
 20
243.0105516132645
 30
0.0
 11
96.55000000000021
 21
243.0105516132646
 31
0.0
  0
LINE
  5
232
330
1F
100
AcDbEntity
  8
0
  6
Continuous
 62
     7
100
AcDbLine
 10
73.35000000000016
 20
243.0105516132646
 30
0.0
 11
81.85000000000016
 21
243.0105516132647
 31
0.0
  0
LINE
  5
233
330
1F
100
AcDbEntity
  8
0
  6
Continuous
 62
     7
100
AcDbLine
 10
105.5000000000001
 20
240.2105516132645
 30
0.0
 11
105.5000000000001
 21
237.6105516132643
 31
0.0
  0
LINE
  5
234
330
1F
100
AcDbEntity
  8
0
  6
Continuous
 62
     7
100
AcDbLine
 10
85.90000000000002
 20
241.5105516132646
 30
0.0
 11
104.2000000000001
 21
241.5105516132646
 31
0.0
  0
LINE
  5
235
330
1F
100
AcDbEntity
  8
0
  6
Continuous
 62
     7
100
AcDbLine
 10
107.0000000000001
 20
238.1105516132643
 30
0.0
 11
107.0000000000002
 21
239.3548118363486
 31
0.0
  0
LINE
  5
236
330
1F
100
AcDbEntity
  8
0
  6
Continuous
 62
     7
100
AcDbLine
 10
107.0000000000002
 20
239.3548118363486
 30
0.0
 11
107.0000000000001
 21
243.0105516132646
 31
0.0
  0
LINE
  5
237
330
1F
100
AcDbEntity
  8
0
  6
Continuous
 62
     7
100
AcDbLine
 10
105.5000000000001
 20
237.1105516132643
 30
0.0
 11
105.5000000000001
 21
237.6105516132643
 31
0.0
  0
LINE
  5
238
330
1F
100
AcDbEntity
  8
0
  6
Continuous
 62
     7
100
AcDbLine
 10
107.0000000000001
 20
237.1105516132643
 30
0.0
 11
107.0000000000001
 21
237.6105516132643
 31
0.0
  0
LINE
  5
239
330
1F
100
AcDbEntity
  8
0
  6
Continuous
 62
     7
100
AcDbLine
 10
105.5000000000001
 20
237.1105516132643
 30
0.0
 11
105.5000000000001
 21
235.1105516132643
 31
0.0
  0
LINE
  5
23A
330
1F
100
AcDbEntity
  8
0
  6
Continuous
 62
     7
100
AcDbLine
 10
107.0000000000001
 20
238.1105516132643
 30
0.0
 11
107.0000000000001
 21
238.0105516132646
 31
0.0
  0
LINE
  5
23B
330
1F
100
AcDbEntity
  8
0
  6
Continuous
 62
     7
100
AcDbLine
 10
107.0000000000001
 20
238.0105516132646
 30
0.0
 11
107.0000000000001
 21
237.6105516132643
 31
0.0
  0
LINE
  5
23C
330
1F
100
AcDbEntity
  8
0
  6
Continuous
 62
     7
100
AcDbLine
 10
105.5000000000001
 20
235.1105516132643
 30
0.0
 11
105.5000000000001
 21
234.6105516132643
 31
0.0
  0
LINE
  5
23D
330
1F
100
AcDbEntity
  8
0
  6
Continuous
 62
     7
100
AcDbLine
 10
107.0000000000001
 20
234.6105516132643
 30
0.0
 11
105.5000000000001
 21
234.6105516132643
 31
0.0
  0
LINE
  5
23E
330
1F
100
AcDbEntity
  8
0
  6
Continuous
 62
     7
100
AcDbLine
 10
107.0
 20
234.1105516132643
 30
0.0
 11
107.0000000000001
 21
234.6105516132643
 31
0.0
  0
LINE
  5
23F
330
1F
100
AcDbEntity
  8
0
  6
Continuous
 62
     7
100
AcDbLine
 10
107.0000000000001
 20
235.1105516132643
 30
0.0
 11
107.0000000000001
 21
234.6105516132643
 31
0.0
  0
LINE
  5
240
330
1F
100
AcDbEntity
  8
0
  6
Continuous
 62
     7
100
AcDbLine
 10
89.55000000000011
 20
230.6605516132647
 30
0.0
 11
89.55000000000011
 21
229.7605516132643
 31
0.0
  0
LINE
  5
241
330
1F
100
AcDbEntity
  8
0
  6
Continuous
 62
     7
100
AcDbLine
 10
105.5000000000001
 20
234.6105516132643
 30
0.0
 11
105.5000000000001
 21
230.6605516132644
 31
0.0
  0
LINE
  5
242
330
1F
100
AcDbEntity
  8
0
  6
Continuous
 62
     7
100
AcDbLine
 10
66.65000000000012
 20
211.0105516132645
 30
0.0
 11
73.85000000000016
 21
211.0105516132645
 31
0.0
  0
LINE
  5
243
330
1F
100
AcDbEntity
  8
0
  6
Continuous
 62
     7
100
AcDbLine
 10
80.35000000000007
 20
231.3605516132647
 30
0.0
 11
68.55000000000005
 21
231.3605516132647
 31
0.0
  0
LINE
  5
244
330
1F
100
AcDbEntity
  8
0
  6
Continuous
 62
     7
100
AcDbLine
 10
102.6500000000001
 20
226.2605516132643
 30
0.0
 11
103.6500000000001
 21
226.2605516132643
 31
0.0
  0
LINE
  5
245
330
1F
100
AcDbEntity
  8
0
  6
Continuous
 62
     7
100
AcDbLine
 10
101.8789809421255
 20
229.2605516132644
 30
0.0
 11
101.8789809421255
 21
226.7605516132643
 31
0.0
  0
LINE
  5
246
330
1F
100
AcDbEntity
  8
0
  6
Continuous
 62
     7
100
AcDbLine
 10
103.6500000000001
 20
229.7605516132643
 30
0.0
 11
103.6500000000001
 21
226.2605516132643
 31
0.0
  0
LINE
  5
247
330
1F
100
AcDbEntity
  8
0
  6
Continuous
 62
     7
100
AcDbLine
 10
102.6500000000001
 20
226.2605516132643
 30
0.0
 11
102.6500000000001
 21
229.7605516132644
 31
0.0
  0
LINE
  5
248
330
1F
100
AcDbEntity
  8
0
  6
Continuous
 62
     7
100
AcDbLine
 10
105.5000000000001
 20
225.3605516132643
 30
0.0
 11
105.5000000000001
 21
215.8105516132646
 31
0.0
  0
LINE
  5
249
330
1F
100
AcDbEntity
  8
0
  6
Continuous
 62
     7
100
AcDbLine
 10
105.5000000000001
 20
230.6605516132644
 30
0.0
 11
105.5000000000001
 21
225.3605516132643
 31
0.0
  0
LINE
  5
24A
330
1F
100
AcDbEntity
  8
0
  6
Continuous
 62
     7
100
AcDbLine
 10
103.7500000000002
 20
211.0105516132646
 30
0.0
 11
103.7500000000002
 21
213.0105516132645
 31
0.0
  0
LINE
  5
24B
330
1F
100
AcDbEntity
  8
0
  6
Continuous
 62
     7
100
AcDbLine
 10
89.55000000000011
 20
229.7605516132643
 30
0.0
 11
89.55000000000005
 21
229.2605516132644
 31
0.0
  0
LINE
  5
24C
330
1F
100
AcDbEntity
  8
0
  6
Continuous
 62
     7
100
AcDbLine
 10
102.6500000000001
 20
229.7605516132644
 30
0.0
 11
101.3500000000001
 21
229.7605516132643
 31
0.0
  0
LINE
  5
24D
330
1F
100
AcDbEntity
  8
0
  6
Continuous
 62
     7
100
AcDbLine
 10
102.6500000000001
 20
229.7605516132644
 30
0.0
 11
103.6500000000001
 21
229.7605516132643
 31
0.0
  0
LINE
  5
24E
330
1F
100
AcDbEntity
  8
0
  6
Continuous
 62
     7
100
AcDbLine
 10
101.3500000000001
 20
230.6605516132643
 30
0.0
 11
105.5000000000001
 21
230.6605516132644
 31
0.0
  0
LINE
  5
24F
330
1F
100
AcDbEntity
  8
0
  6
Continuous
 62
     7
100
AcDbLine
 10
101.3000000000001
 20
229.7605516132643
 30
0.0
 11
101.3500000000001
 21
229.7605516132643
 31
0.0
  0
LINE
  5
250
330
1F
100
AcDbEntity
  8
0
  6
Continuous
 62
     7
100
AcDbLine
 10
89.55000000000011
 20
229.7605516132643
 30
0.0
 11
88.2500000000001
 21
229.7605516132644
 31
0.0
  0
LINE
  5
251
330
1F
100
AcDbEntity
  8
0
  6
Continuous
 62
     7
100
AcDbLine
 10
89.60000000000012
 20
229.7605516132643
 30
0.0
 11
89.55000000000011
 21
229.7605516132643
 31
0.0
  0
LINE
  5
252
330
1F
100
AcDbEntity
  8
0
  6
Continuous
 62
     7
100
AcDbLine
 10
101.3500000000001
 20
229.7605516132643
 30
0.0
 11
101.3500000000001
 21
230.6605516132643
 31
0.0
  0
LINE
  5
253
330
1F
100
AcDbEntity
  8
0
  6
Continuous
 62
     7
100
AcDbLine
 10
89.55000000000011
 20
230.6605516132647
 30
0.0
 11
80.35000000000007
 21
230.6605516132647
 31
0.0
  0
LINE
  5
254
330
1F
100
AcDbEntity
  8
0
  6
Continuous
 62
     7
100
AcDbLine
 10
89.02101905787468
 20
226.7605516132644
 30
0.0
 11
89.02101905787468
 21
229.2605516132644
 31
0.0
  0
LINE
  5
255
330
1F
100
AcDbEntity
  8
0
  6
Continuous
 62
     7
100
AcDbLine
 10
89.55000000000011
 20
231.3605516132643
 30
0.0
 11
89.55000000000011
 21
230.6605516132647
 31
0.0
  0
LINE
  5
256
330
1F
100
AcDbEntity
  8
0
  6
Continuous
 62
     7
100
AcDbLine
 10
92.30000000000005
 20
231.3605516132643
 30
0.0
 11
89.55000000000011
 21
231.3605516132643
 31
0.0
  0
LINE
  5
257
330
1F
100
AcDbEntity
  8
0
  6
Continuous
 62
     7
100
AcDbLine
 10
92.30000000000005
 20
233.3605516132643
 30
0.0
 11
92.30000000000005
 21
231.3605516132643
 31
0.0
  0
LINE
  5
258
330
1F
100
AcDbEntity
  8
0
  6
Continuous
 62
     7
100
AcDbLine
 10
89.60000000000012
 20
226.2605516132643
 30
0.0
 11
89.55000000000011
 21
226.2605516132643
 31
0.0
  0
LINE
  5
259
330
1F
100
AcDbEntity
  8
0
  6
Continuous
 62
     7
100
AcDbLine
 10
89.55000000000005
 20
226.7605516132644
 30
0.0
 11
89.55000000000005
 21
229.2605516132644
 31
0.0
  0
LINE
  5
25A
330
1F
100
AcDbEntity
  8
0
  6
Continuous
 62
     7
100
AcDbLine
 10
89.55000000000005
 20
226.7605516132644
 30
0.0
 11
89.55000000000011
 21
226.2605516132643
 31
0.0
  0
LINE
  5
25B
330
1F
100
AcDbEntity
  8
0
  6
Continuous
 62
     7
100
AcDbLine
 10
101.3500000000001
 20
226.2605516132643
 30
0.0
 11
101.3500000000001
 21
226.7605516132643
 31
0.0
  0
LINE
  5
25C
330
1F
100
AcDbEntity
  8
0
  6
Continuous
 62
     7
100
AcDbLine
 10
101.3000000000001
 20
226.2605516132643
 30
0.0
 11
101.3500000000001
 21
226.2605516132643
 31
0.0
  0
LINE
  5
25D
330
1F
100
AcDbEntity
  8
0
  6
Continuous
 62
     7
100
AcDbLine
 10
89.55000000000011
 20
226.2605516132643
 30
0.0
 11
88.2500000000001
 21
226.2605516132644
 31
0.0
  0
LINE
  5
25E
330
1F
100
AcDbEntity
  8
0
  6
Continuous
 62
     7
100
AcDbLine
 10
101.3500000000001
 20
225.3605516132643
 30
0.0
 11
101.3500000000001
 21
226.2605516132643
 31
0.0
  0
LINE
  5
25F
330
1F
100
AcDbEntity
  8
0
  6
Continuous
 62
     7
100
AcDbLine
 10
101.3500000000001
 20
226.7605516132643
 30
0.0
 11
101.8789809421255
 21
226.7605516132643
 31
0.0
  0
LINE
  5
260
330
1F
100
AcDbEntity
  8
0
  6
Continuous
 62
     7
100
AcDbLine
 10
102.6500000000001
 20
226.2605516132643
 30
0.0
 11
101.3500000000001
 21
226.2605516132643
 31
0.0
  0
LINE
  5
261
330
1F
100
AcDbEntity
  8
0
  6
Continuous
 62
     7
100
AcDbLine
 10
98.60000000000007
 20
233.3605516132643
 30
0.0
 11
98.60000000000007
 21
231.3605516132643
 31
0.0
  0
LINE
  5
262
330
1F
100
AcDbEntity
  8
0
  6
Continuous
 62
     7
100
AcDbLine
 10
101.3500000000001
 20
231.3605516132643
 30
0.0
 11
101.3500000000001
 21
230.6605516132643
 31
0.0
  0
LINE
  5
263
330
1F
100
AcDbEntity
  8
0
  6
Continuous
 62
     7
100
AcDbLine
 10
89.02101905787468
 20
229.2605516132644
 30
0.0
 11
89.55000000000005
 21
229.2605516132644
 31
0.0
  0
LINE
  5
264
330
1F
100
AcDbEntity
  8
0
  6
Continuous
 62
     7
100
AcDbLine
 10
101.3500000000001
 20
229.2605516132643
 30
0.0
 11
101.3500000000001
 21
229.7605516132643
 31
0.0
  0
LINE
  5
265
330
1F
100
AcDbEntity
  8
0
  6
Continuous
 62
     7
100
AcDbLine
 10
101.3500000000001
 20
229.2605516132643
 30
0.0
 11
101.8789809421255
 21
229.2605516132644
 31
0.0
  0
LINE
  5
266
330
1F
100
AcDbEntity
  8
0
  6
Continuous
 62
     7
100
AcDbLine
 10
98.60000000000007
 20
233.3605516132643
 30
0.0
 11
92.30000000000005
 21
233.3605516132643
 31
0.0
  0
LINE
  5
267
330
1F
100
AcDbEntity
  8
0
  6
Continuous
 62
     7
100
AcDbLine
 10
101.3500000000001
 20
231.3605516132643
 30
0.0
 11
98.60000000000007
 21
231.3605516132643
 31
0.0
  0
LINE
  5
268
330
1F
100
AcDbEntity
  8
0
  6
Continuous
 62
     7
100
AcDbLine
 10
89.02101905787468
 20
226.7605516132644
 30
0.0
 11
89.55000000000005
 21
226.7605516132644
 31
0.0
  0
LINE
  5
269
330
1F
100
AcDbEntity
  8
0
  6
Continuous
 62
     7
100
AcDbLine
 10
101.3500000000001
 20
226.7605516132643
 30
0.0
 11
101.3500000000001
 21
229.2605516132643
 31
0.0
  0
LINE
  5
26A
330
1F
100
AcDbEntity
  8
0
  6
Continuous
 62
     7
100
AcDbLine
 10
107.0000000000001
 20
218.0105516132646
 30
0.0
 11
107.0000000000002
 21
219.3548118363486
 31
0.0
  0
LINE
  5
26B
330
1F
100
AcDbEntity
  8
0
  6
Continuous
 62
     7
100
AcDbLine
 10
103.2500000000002
 20
211.0105516132646
 30
0.0
 11
103.7500000000002
 21
211.0105516132646
 31
0.0
  0
LINE
  5
26C
330
1F
100
AcDbEntity
  8
0
  6
Continuous
 62
     7
100
AcDbLine
 10
96.05000000000021
 20
211.0105516132646
 30
0.0
 11
103.2500000000002
 21
211.0105516132646
 31
0.0
  0
LINE
  5
26D
330
1F
100
AcDbEntity
  8
0
  6
Continuous
 62
     7
100
AcDbLine
 10
107.0000000000002
 20
213.0105516132645
 30
0.0
 11
107.0000000000001
 21
216.6662913901806
 31
0.0
  0
LINE
  5
26E
330
1F
100
AcDbEntity
  8
0
  6
Continuous
 62
     7
100
AcDbLine
 10
107.0000000000001
 20
216.6662913901806
 30
0.0
 11
107.0000000000001
 21
218.0105516132646
 31
0.0
  0
LINE
  5
26F
330
1F
100
AcDbEntity
  8
0
  6
Continuous
 62
     7
100
AcDbLine
 10
88.2500000000001
 20
229.7605516132644
 30
0.0
 11
88.2500000000001
 21
226.2605516132644
 31
0.0
  0
LINE
  5
270
330
1F
100
AcDbEntity
  8
0
  6
Continuous
 62
     7
100
AcDbLine
 10
87.2500000000001
 20
229.7605516132643
 30
0.0
 11
88.2500000000001
 21
229.7605516132644
 31
0.0
  0
LINE
  5
271
330
1F
100
AcDbEntity
  8
0
  6
Continuous
 62
     7
100
AcDbLine
 10
87.2500000000001
 20
226.2605516132643
 30
0.0
 11
88.2500000000001
 21
226.2605516132644
 31
0.0
  0
LINE
  5
272
330
1F
100
AcDbEntity
  8
0
  6
Continuous
 62
     7
100
AcDbLine
 10
81.35000000000016
 20
211.0105516132646
 30
0.0
 11
80.85000000000016
 21
211.0105516132646
 31
0.0
  0
LINE
  5
273
330
1F
100
AcDbEntity
  8
0
  6
Continuous
 62
     7
100
AcDbLine
 10
80.85000000000016
 20
213.0105516132645
 30
0.0
 11
80.85000000000016
 21
211.0105516132646
 31
0.0
  0
LINE
  5
274
330
1F
100
AcDbEntity
  8
0
  6
Continuous
 62
     7
100
AcDbLine
 10
87.2500000000001
 20
229.7605516132643
 30
0.0
 11
87.2500000000001
 21
226.2605516132643
 31
0.0
  0
LINE
  5
275
330
1F
100
AcDbEntity
  8
0
  6
Continuous
 62
     7
100
AcDbLine
 10
80.35000000000007
 20
224.6605516132647
 30
0.0
 11
80.35000000000007
 21
225.3605516132646
 31
0.0
  0
LINE
  5
276
330
1F
100
AcDbEntity
  8
0
  6
Continuous
 62
     7
100
AcDbLine
 10
80.35000000000007
 20
229.7605516132647
 30
0.0
 11
80.35000000000007
 21
230.6605516132647
 31
0.0
  0
LINE
  5
277
330
1F
100
AcDbEntity
  8
0
  6
Continuous
 62
     7
100
AcDbLine
 10
80.87898094212544
 20
229.2605516132647
 30
0.0
 11
80.87898094212544
 21
226.7605516132647
 31
0.0
  0
LINE
  5
278
330
1F
100
AcDbEntity
  8
0
  6
Continuous
 62
     7
100
AcDbLine
 10
80.35000000000007
 20
225.3605516132646
 30
0.0
 11
80.35000000000007
 21
226.2605516132647
 31
0.0
  0
LINE
  5
279
330
1F
100
AcDbEntity
  8
0
  6
Continuous
 62
     7
100
AcDbLine
 10
80.35000000000007
 20
229.2605516132647
 30
0.0
 11
80.35000000000007
 21
226.7605516132647
 31
0.0
  0
LINE
  5
27A
330
1F
100
AcDbEntity
  8
0
  6
Continuous
 62
     7
100
AcDbLine
 10
82.65000000000008
 20
226.2605516132647
 30
0.0
 11
81.65000000000008
 21
226.2605516132647
 31
0.0
  0
LINE
  5
27B
330
1F
100
AcDbEntity
  8
0
  6
Continuous
 62
     7
100
AcDbLine
 10
82.65000000000008
 20
229.7605516132647
 30
0.0
 11
81.65000000000008
 21
229.7605516132647
 31
0.0
  0
LINE
  5
27C
330
1F
100
AcDbEntity
  8
0
  6
Continuous
 62
     7
100
AcDbLine
 10
82.65000000000008
 20
226.2605516132647
 30
0.0
 11
82.65000000000008
 21
229.7605516132647
 31
0.0
  0
LINE
  5
27D
330
1F
100
AcDbEntity
  8
0
  6
Continuous
 62
     7
100
AcDbLine
 10
81.35000000000016
 20
211.0105516132646
 30
0.0
 11
88.55000000000021
 21
211.0105516132645
 31
0.0
  0
LINE
  5
27E
330
1F
100
AcDbEntity
  8
0
  6
Continuous
 62
     7
100
AcDbLine
 10
107.0000000000002
 20
219.3548118363486
 30
0.0
 11
107.0
 21
234.1105516132643
 31
0.0
  0
LINE
  5
27F
330
1F
100
AcDbEntity
  8
0
  6
Continuous
 62
     7
100
AcDbLine
 10
84.0000000000001
 20
214.5105516132645
 30
0.0
 11
66.10000000000001
 21
214.5105516132645
 31
0.0
  0
LINE
  5
280
330
1F
100
AcDbEntity
  8
0
  6
Continuous
 62
     7
100
AcDbLine
 10
71.30000000000005
 20
222.6605516132647
 30
0.0
 11
77.60000000000004
 21
222.6605516132647
 31
0.0
  0
LINE
  5
281
330
1F
100
AcDbEntity
  8
0
  6
Continuous
 62
     7
100
AcDbLine
 10
68.55000000000005
 20
225.3605516132647
 30
0.0
 11
64.40000000000005
 21
225.3605516132647
 31
0.0
  0
LINE
  5
282
330
1F
100
AcDbEntity
  8
0
  6
Continuous
 62
     7
100
AcDbLine
 10
107.9000000000002
 20
238.5311107503118
 30
0.0
 11
107.9000000000002
 21
239.1466144978411
 31
0.0
  0
LINE
  5
283
330
1F
100
AcDbEntity
  8
0
  6
Continuous
 62
     7
100
AcDbLine
 10
107.9000000000002
 20
236.8744887286881
 30
0.0
 11
107.9000000000002
 21
237.4899924762173
 31
0.0
  0
LINE
  5
284
330
1F
100
AcDbEntity
  8
0
  6
Continuous
 62
     7
100
AcDbLine
 10
107.1567120772126
 20
238.2058108146886
 30
0.0
 11
107.6320508075691
 21
238.3111908741561
 31
0.0
  0
LINE
  5
285
330
1F
100
AcDbEntity
  8
0
  6
Continuous
 62
     7
100
AcDbLine
 10
107.6320508075691
 20
237.7099123523731
 30
0.0
 11
107.7432879227878
 21
237.6852516776413
 31
0.0
  0
LINE
  5
286
330
1F
100
AcDbEntity
  8
0
  6
Continuous
 62
     7
100
AcDbLine
 10
107.7432879227878
 20
238.3358515488878
 30
0.0
 11
107.6320508075691
 21
238.3111908741561
 31
0.0
  0
LINE
  5
287
330
1F
100
AcDbEntity
  8
0
  6
Continuous
 62
     7
100
AcDbLine
 10
107.2845236523483
 20
236.8475529475879
 30
0.0
 11
107.615476347652
 21
236.6932271712807
 31
0.0
  0
LINE
  5
288
330
1F
100
AcDbEntity
  8
0
  6
Continuous
 62
     7
100
AcDbLine
 10
107.615476347652
 20
239.3278760552484
 30
0.0
 11
107.2845236523483
 21
239.1735502789412
 31
0.0
  0
LINE
  5
289
330
1F
100
AcDbEntity
  8
0
  6
Continuous
 62
     7
100
AcDbLine
 10
107.6320508075691
 20
237.7099123523731
 30
0.0
 11
107.1567120772126
 21
237.8152924118406
 31
0.0
  0
LINE
  5
28A
330
1F
100
AcDbEntity
  8
0
  6
Continuous
 62
     7
100
AcDbLine
 10
105.5000000000001
 20
237.6105516132643
 30
0.0
 11
107.0000000000001
 21
237.6105516132643
 31
0.0
  0
LINE
  5
28B
330
1F
100
AcDbEntity
  8
0
  6
Continuous
 62
     7
100
AcDbLine
 10
107.0000000000002
 20
236.6662913901806
 30
0.0
 11
107.0000000000001
 21
235.1105516132643
 31
0.0
  0
LINE
  5
28C
330
1F
100
AcDbEntity
  8
0
  6
Continuous
 62
     7
100
AcDbLine
 10
107.0000000000001
 20
237.1105516132643
 30
0.0
 11
107.0000000000002
 21
236.6662913901806
 31
0.0
  0
LINE
  5
28D
330
1F
100
AcDbEntity
  8
0
  6
Continuous
 62
     7
100
AcDbLine
 10
89.55000000000005
 20
224.6605516132644
 30
0.0
 11
101.3500000000001
 21
224.6605516132644
 31
0.0
  0
LINE
  5
28E
330
1F
100
AcDbEntity
  8
0
  6
Continuous
 62
     7
100
AcDbLine
 10
101.3500000000001
 20
225.3605516132643
 30
0.0
 11
101.3500000000001
 21
224.6605516132644
 31
0.0
  0
LINE
  5
28F
330
1F
100
AcDbEntity
  8
0
  6
Continuous
 62
     7
100
AcDbLine
 10
105.5000000000001
 20
225.3605516132643
 30
0.0
 11
101.3500000000001
 21
225.3605516132643
 31
0.0
  0
LINE
  5
290
330
1F
100
AcDbEntity
  8
0
  6
Continuous
 62
     7
100
AcDbLine
 10
89.55000000000011
 20
226.2605516132643
 30
0.0
 11
89.55000000000011
 21
225.3605516132646
 31
0.0
  0
LINE
  5
291
330
1F
100
AcDbEntity
  8
0
  6
Continuous
 62
     7
100
AcDbLine
 10
67.20000000000006
 20
241.5105516132646
 30
0.0
 11
83.20000000000003
 21
241.5105516132646
 31
0.0
  0
LINE
  5
292
330
1F
100
AcDbEntity
  8
0
  6
Continuous
 62
     7
100
AcDbLine
 10
73.35000000000016
 20
245.0105516132645
 30
0.0
 11
73.35000000000016
 21
243.0105516132646
 31
0.0
  0
LINE
  5
293
330
1F
100
AcDbEntity
  8
0
  6
Continuous
 62
     7
100
AcDbLine
 10
73.35000000000016
 20
245.0105516132645
 30
0.0
 11
72.85000000000016
 21
245.0105516132645
 31
0.0
  0
LINE
  5
294
330
1F
100
AcDbEntity
  8
0
  6
Continuous
 62
     7
100
AcDbLine
 10
67.65000000000012
 20
245.0105516132645
 30
0.0
 11
67.15000000000012
 21
245.0105516132645
 31
0.0
  0
LINE
  5
295
330
1F
100
AcDbEntity
  8
0
  6
Continuous
 62
     7
100
AcDbLine
 10
67.15000000000012
 20
245.0105516132645
 30
0.0
 11
67.15000000000012
 21
243.0105516132646
 31
0.0
  0
LINE
  5
296
330
1F
100
AcDbEntity
  8
0
  6
Continuous
 62
     7
100
AcDbLine
 10
68.55000000000005
 20
229.7605516132647
 30
0.0
 11
68.55000000000005
 21
229.2605516132647
 31
0.0
  0
LINE
  5
297
330
1F
100
AcDbEntity
  8
0
  6
Continuous
 62
     7
100
AcDbLine
 10
68.55000000000005
 20
230.6605516132647
 30
0.0
 11
68.55000000000005
 21
231.3605516132647
 31
0.0
  0
LINE
  5
298
330
1F
100
AcDbEntity
  8
0
  6
Continuous
 62
     7
100
AcDbLine
 10
68.55000000000005
 20
224.6605516132647
 30
0.0
 11
68.55000000000005
 21
225.3605516132647
 31
0.0
  0
LINE
  5
299
330
1F
100
AcDbEntity
  8
0
  6
Continuous
 62
     7
100
AcDbLine
 10
68.55000000000005
 20
229.2605516132647
 30
0.0
 11
68.02101905787465
 21
229.2605516132647
 31
0.0
  0
LINE
  5
29A
330
1F
100
AcDbEntity
  8
0
  6
Continuous
 62
     7
100
AcDbLine
 10
68.02101905787465
 20
226.7605516132647
 30
0.0
 11
68.02101905787465
 21
229.2605516132647
 31
0.0
  0
LINE
  5
29B
330
1F
100
AcDbEntity
  8
0
  6
Continuous
 62
     7
100
AcDbLine
 10
68.55000000000005
 20
226.7605516132647
 30
0.0
 11
68.02101905787465
 21
226.7605516132647
 31
0.0
  0
LINE
  5
29C
330
1F
100
AcDbEntity
  8
0
  6
Continuous
 62
     7
100
AcDbLine
 10
68.55000000000005
 20
226.7605516132647
 30
0.0
 11
68.55000000000005
 21
226.2605516132647
 31
0.0
  0
LINE
  5
29D
330
1F
100
AcDbEntity
  8
0
  6
Continuous
 62
     7
100
AcDbLine
 10
72.85000000000016
 20
245.0105516132645
 30
0.0
 11
67.65000000000012
 21
245.0105516132645
 31
0.0
  0
LINE
  5
29E
330
1F
100
AcDbEntity
  8
0
  6
Continuous
 62
     7
100
AcDbLine
 10
68.55000000000005
 20
224.6605516132647
 30
0.0
 11
71.30000000000005
 21
224.6605516132647
 31
0.0
  0
LINE
  5
29F
330
1F
100
AcDbEntity
  8
0
  6
Continuous
 62
     7
100
AcDbLine
 10
67.15000000000012
 20
243.0105516132646
 30
0.0
 11
73.35000000000016
 21
243.0105516132646
 31
0.0
  0
LINE
  5
2A0
330
1F
100
AcDbEntity
  8
0
  6
Continuous
 62
     7
100
AcDbLine
 10
107.9000000000002
 20
218.5311107503118
 30
0.0
 11
107.9000000000002
 21
219.1466144978411
 31
0.0
  0
LINE
  5
2A1
330
1F
100
AcDbEntity
  8
0
  6
Continuous
 62
     7
100
AcDbLine
 10
107.9000000000002
 20
216.8744887286881
 30
0.0
 11
107.9000000000002
 21
217.4899924762173
 31
0.0
  0
LINE
  5
2A2
330
1F
100
AcDbEntity
  8
0
  6
Continuous
 62
     7
100
AcDbLine
 10
107.632050807569
 20
217.7099123523731
 30
0.0
 11
107.1567120772126
 21
217.8152924118406
 31
0.0
  0
LINE
  5
2A3
330
1F
100
AcDbEntity
  8
0
  6
Continuous
 62
     7
100
AcDbLine
 10
107.1567120772125
 20
218.2058108146885
 30
0.0
 11
107.632050807569
 21
218.3111908741561
 31
0.0
  0
LINE
  5
2A4
330
1F
100
AcDbEntity
  8
0
  6
Continuous
 62
     7
100
AcDbLine
 10
107.632050807569
 20
217.7099123523731
 30
0.0
 11
107.7432879227878
 21
217.6852516776413
 31
0.0
  0
LINE
  5
2A5
330
1F
100
AcDbEntity
  8
0
  6
Continuous
 62
     7
100
AcDbLine
 10
107.7432879227878
 20
218.3358515488878
 30
0.0
 11
107.632050807569
 21
218.3111908741561
 31
0.0
  0
LINE
  5
2A6
330
1F
100
AcDbEntity
  8
0
  6
Continuous
 62
     7
100
AcDbLine
 10
107.615476347652
 20
219.3278760552484
 30
0.0
 11
107.2845236523483
 21
219.1735502789412
 31
0.0
  0
LINE
  5
2A7
330
1F
100
AcDbEntity
  8
0
  6
Continuous
 62
     7
100
AcDbLine
 10
107.2845236523483
 20
216.8475529475879
 30
0.0
 11
107.615476347652
 21
216.6932271712807
 31
0.0
  0
LINE
  5
2A8
330
1F
100
AcDbEntity
  8
0
  6
Continuous
 62
     7
100
AcDbLine
 10
86.20000000000003
 20
216.7105516132646
 30
0.0
 11
86.20000000000003
 21
215.0105516132645
 31
0.0
  0
LINE
  5
2A9
330
1F
100
AcDbEntity
  8
0
  6
Continuous
 62
     7
100
AcDbLine
 10
104.2000000000001
 20
214.5105516132645
 30
0.0
 11
86.70000000000003
 21
214.5105516132645
 31
0.0
  0
LINE
  5
2AA
330
1F
100
AcDbEntity
  8
0
  6
Continuous
 62
     7
100
AcDbLine
 10
84.5000000000001
 20
215.0105516132645
 30
0.0
 11
84.5000000000001
 21
216.7105516132646
 31
0.0
  0
LINE
  5
2AB
330
1F
100
AcDbEntity
  8
0
  6
Continuous
 62
     7
100
AcDbLine
 10
74.35000000000016
 20
213.0105516132645
 30
0.0
 11
80.85000000000016
 21
213.0105516132645
 31
0.0
  0
LINE
  5
2AC
330
1F
100
AcDbEntity
  8
0
  6
Continuous
 62
     7
100
AcDbLine
 10
80.85000000000016
 20
213.0105516132645
 30
0.0
 11
89.05000000000021
 21
213.0105516132645
 31
0.0
  0
LINE
  5
2AD
330
1F
100
AcDbEntity
  8
0
  6
Continuous
 62
     7
100
AcDbLine
 10
103.7500000000002
 20
213.0105516132645
 30
0.0
 11
107.0000000000002
 21
213.0105516132645
 31
0.0
  0
LINE
  5
2AE
330
1F
100
AcDbEntity
  8
0
  6
Continuous
 62
     7
100
AcDbLine
 10
95.55000000000021
 20
213.0105516132645
 30
0.0
 11
103.7500000000002
 21
213.0105516132645
 31
0.0
  0
LINE
  5
2AF
330
1F
100
AcDbEntity
  8
0
  6
Continuous
 62
     7
100
AcDbLine
 10
77.60000000000004
 20
224.6605516132647
 30
0.0
 11
80.35000000000007
 21
224.6605516132647
 31
0.0
  0
LINE
  5
2B0
330
1F
100
AcDbEntity
  8
0
  6
Continuous
 62
     7
100
AcDbLine
 10
77.60000000000004
 20
222.6605516132647
 30
0.0
 11
77.60000000000004
 21
224.6605516132647
 31
0.0
  0
LINE
  5
2B1
330
1F
100
AcDbEntity
  8
0
  6
Continuous
 62
     7
100
AcDbLine
 10
85.0000000000001
 20
217.2105516132646
 30
0.0
 11
85.70000000000003
 21
217.2105516132646
 31
0.0
  0
LINE
  5
2B2
330
1F
100
AcDbEntity
  8
0
  6
Continuous
 62
     7
100
AcDbLine
 10
62.90000000000012
 20
243.0105516132645
 30
0.0
 11
62.89999999999999
 21
221.9105516132647
 31
0.0
  0
LINE
  5
2B3
330
1F
100
AcDbEntity
  8
0
  6
Continuous
 62
     7
100
AcDbLine
 10
62.90000000000012
 20
243.0105516132645
 30
0.0
 11
67.15000000000012
 21
243.0105516132646
 31
0.0
  0
LINE
  5
2B4
330
1F
100
AcDbEntity
  8
0
  6
Continuous
 62
     7
100
AcDbLine
 10
62.89999999999999
 20
221.4105516132647
 30
0.0
 11
64.40000000000005
 21
221.4105516132647
 31
0.0
  0
LINE
  5
2B5
330
1F
100
AcDbEntity
  8
0
  6
Continuous
 62
     7
100
AcDbLine
 10
64.40000000000005
 20
218.4105516132645
 30
0.0
 11
62.89999999999999
 21
218.4105516132645
 31
0.0
  0
LINE
  5
2B6
330
1F
100
AcDbEntity
  8
0
  6
Continuous
 62
     7
100
AcDbLine
 10
62.89999999999999
 20
217.9105516132645
 30
0.0
 11
62.89999999999999
 21
218.4105516132645
 31
0.0
  0
LINE
  5
2B7
330
1F
100
AcDbEntity
  8
0
  6
Continuous
 62
     7
100
AcDbLine
 10
64.40000000000005
 20
230.6605516132647
 30
0.0
 11
64.40000000000005
 21
238.7105516132645
 31
0.0
  0
LINE
  5
2B8
330
1F
100
AcDbEntity
  8
0
  6
Continuous
 62
     7
100
AcDbLine
 10
62.89999999999999
 20
221.9105516132647
 30
0.0
 11
62.89999999999999
 21
221.4105516132647
 31
0.0
  0
LINE
  5
2B9
330
1F
100
AcDbEntity
  8
0
  6
Continuous
 62
     7
100
AcDbLine
 10
62.89999999999999
 20
218.4105516132645
 30
0.0
 11
62.89999999999999
 21
218.9105516132645
 31
0.0
  0
LINE
  5
2BA
330
1F
100
AcDbEntity
  8
0
  6
Continuous
 62
     7
100
AcDbLine
 10
62.89999999999999
 20
221.4105516132647
 30
0.0
 11
62.89999999999999
 21
220.9105516132647
 31
0.0
  0
LINE
  5
2BB
330
1F
100
AcDbEntity
  8
0
  6
Continuous
 62
     7
100
AcDbLine
 10
62.89999999999999
 20
218.9105516132645
 30
0.0
 11
62.89999999999999
 21
220.9105516132647
 31
0.0
  0
LINE
  5
2BC
330
1F
100
AcDbEntity
  8
0
  6
Continuous
 62
     7
100
AcDbLine
 10
62.89999999999999
 20
217.9105516132645
 30
0.0
 11
62.90000000000012
 21
213.0105516132645
 31
0.0
  0
LINE
  5
2BD
330
1F
100
AcDbEntity
  8
0
  6
Continuous
 62
     7
100
AcDbLine
 10
62.90000000000012
 20
213.0105516132645
 30
0.0
 11
66.15000000000012
 21
213.0105516132645
 31
0.0
  0
LINE
  5
2BE
330
1F
100
AcDbEntity
  8
0
  6
Continuous
 62
     7
100
AcDbLine
 10
64.40000000000005
 20
221.4105516132647
 30
0.0
 11
64.40000000000005
 21
225.3605516132647
 31
0.0
  0
LINE
  5
2BF
330
1F
100
AcDbEntity
  8
0
  6
Continuous
 62
     7
100
AcDbLine
 10
64.40000000000005
 20
230.6605516132647
 30
0.0
 11
68.55000000000005
 21
230.6605516132647
 31
0.0
  0
LINE
  5
2C0
330
1F
100
AcDbEntity
  8
0
  6
Continuous
 62
     7
100
AcDbLine
 10
64.40000000000005
 20
217.2105516132645
 30
0.0
 11
65.10000000000004
 21
217.2105516132645
 31
0.0
  0
LINE
  5
2C1
330
1F
100
AcDbEntity
  8
0
  6
Continuous
 62
     7
100
AcDbLine
 10
64.40000000000005
 20
225.3605516132647
 30
0.0
 11
64.40000000000005
 21
230.6605516132647
 31
0.0
  0
LINE
  5
2C2
330
1F
100
AcDbEntity
  8
0
  6
Continuous
 62
     7
100
AcDbLine
 10
65.60000000000004
 20
216.7105516132645
 30
0.0
 11
65.60000000000001
 21
215.0105516132645
 31
0.0
  0
LINE
  5
2C3
330
1F
100
AcDbEntity
  8
0
  6
Continuous
 62
     7
100
AcDbLine
 10
64.40000000000005
 20
221.4105516132647
 30
0.0
 11
64.40000000000005
 21
220.9105516132647
 31
0.0
  0
LINE
  5
2C4
330
1F
100
AcDbEntity
  8
0
  6
Continuous
 62
     7
100
AcDbLine
 10
64.40000000000005
 20
218.4105516132645
 30
0.0
 11
64.40000000000005
 21
218.9105516132645
 31
0.0
  0
LINE
  5
2C5
330
1F
100
AcDbEntity
  8
0
  6
Continuous
 62
     7
100
AcDbLine
 10
64.40000000000005
 20
217.2105516132645
 30
0.0
 11
64.40000000000005
 21
218.4105516132645
 31
0.0
  0
LINE
  5
2C6
330
1F
100
AcDbEntity
  8
0
  6
Continuous
 62
     7
100
AcDbLine
 10
64.40000000000005
 20
218.9105516132645
 30
0.0
 11
64.40000000000005
 21
220.9105516132647
 31
0.0
  0
LINE
  5
2C7
330
1F
100
AcDbEntity
  8
0
  6
Continuous
 62
     7
100
AcDbLine
 10
67.25000000000004
 20
229.7605516132647
 30
0.0
 11
66.25000000000004
 21
229.7605516132647
 31
0.0
  0
LINE
  5
2C8
330
1F
100
AcDbEntity
  8
0
  6
Continuous
 62
     7
100
AcDbLine
 10
67.25000000000004
 20
226.2605516132647
 30
0.0
 11
66.25000000000004
 21
226.2605516132647
 31
0.0
  0
LINE
  5
2C9
330
1F
100
AcDbEntity
  8
0
  6
Continuous
 62
     7
100
AcDbLine
 10
66.25000000000004
 20
226.2605516132647
 30
0.0
 11
66.25000000000004
 21
229.7605516132647
 31
0.0
  0
LINE
  5
2CA
330
1F
100
AcDbEntity
  8
0
  6
Continuous
 62
     7
100
AcDbLine
 10
66.15000000000012
 20
213.0105516132645
 30
0.0
 11
74.35000000000016
 21
213.0105516132645
 31
0.0
  0
LINE
  5
2CB
330
1F
100
AcDbEntity
  8
0
  6
Continuous
 62
     7
100
AcDbLine
 10
66.15000000000012
 20
213.0105516132645
 30
0.0
 11
66.15000000000012
 21
211.0105516132645
 31
0.0
  0
LINE
  5
2CC
330
1F
100
AcDbEntity
  8
0
  6
Continuous
 62
     7
100
AcDbLine
 10
66.65000000000012
 20
211.0105516132645
 30
0.0
 11
66.15000000000012
 21
211.0105516132645
 31
0.0
  0
LINE
  5
2CD
330
1F
100
AcDbEntity
  8
0
  6
Continuous
 62
     7
100
AcDbLine
 10
68.55000000000005
 20
229.2605516132647
 30
0.0
 11
68.55000000000005
 21
226.7605516132647
 31
0.0
  0
LINE
  5
2CE
330
1F
100
AcDbEntity
  8
0
  6
Continuous
 62
     7
100
AcDbLine
 10
68.60000000000004
 20
226.2605516132647
 30
0.0
 11
68.55000000000005
 21
226.2605516132647
 31
0.0
  0
LINE
  5
2CF
330
1F
100
AcDbEntity
  8
0
  6
Continuous
 62
     7
100
AcDbLine
 10
68.60000000000004
 20
229.7605516132647
 30
0.0
 11
68.55000000000005
 21
229.7605516132647
 31
0.0
  0
LINE
  5
2D0
330
1F
100
AcDbEntity
  8
0
  6
Continuous
 62
     7
100
AcDbLine
 10
68.55000000000005
 20
226.2605516132647
 30
0.0
 11
68.55000000000005
 21
225.3605516132647
 31
0.0
  0
LINE
  5
2D1
330
1F
100
AcDbEntity
  8
0
  6
Continuous
 62
     7
100
AcDbLine
 10
68.55000000000005
 20
230.6605516132647
 30
0.0
 11
68.55000000000005
 21
229.7605516132647
 31
0.0
  0
LINE
  5
2D2
330
1F
100
AcDbEntity
  8
0
  6
Continuous
 62
     7
100
AcDbLine
 10
71.30000000000005
 20
222.6605516132647
 30
0.0
 11
71.30000000000005
 21
224.6605516132647
 31
0.0
  0
LINE
  5
2D3
330
1F
100
AcDbEntity
  8
0
  6
Continuous
 62
     7
100
AcDbLine
 10
67.25000000000004
 20
229.7605516132647
 30
0.0
 11
68.55000000000005
 21
229.7605516132647
 31
0.0
  0
LINE
  5
2D4
330
1F
100
AcDbEntity
  8
0
  6
Continuous
 62
     7
100
AcDbLine
 10
67.25000000000004
 20
226.2605516132647
 30
0.0
 11
68.55000000000005
 21
226.2605516132647
 31
0.0
  0
LINE
  5
2D5
330
1F
100
AcDbEntity
  8
0
  6
Continuous
 62
     7
100
AcDbLine
 10
67.25000000000004
 20
229.7605516132647
 30
0.0
 11
67.25000000000004
 21
226.2605516132647
 31
0.0
  0
LINE
  5
2D6
330
1F
100
AcDbEntity
  8
0
  6
DASHED
 62
     7
100
AcDbLine
 10
97.20000000000024
 20
93.45935674649489
 30
0.0
 11
93.70000000000024
 21
93.45935674649489
 31
0.0
  0
LINE
  5
2D7
330
1F
100
AcDbEntity
  8
0
  6
DASHED
 62
     7
100
AcDbLine
 10
100.8000000000002
 20
94.2593567464949
 30
0.0
 11
100.8000000000002
 21
93.20935674649496
 31
0.0
  0
LINE
  5
2D8
330
1F
100
AcDbEntity
  8
0
  6
DASHED
 62
     7
100
AcDbLine
 10
90.10000000000022
 20
93.20935674649496
 30
0.0
 11
90.10000000000022
 21
94.2593567464949
 31
0.0
  0
LINE
  5
2D9
330
1F
100
AcDbEntity
  8
0
  6
DASHED
 62
     7
100
AcDbLine
 10
89.60000000000022
 20
93.20935674649496
 30
0.0
 11
89.60000000000022
 21
94.7593567464949
 31
0.0
  0
LINE
  5
2DA
330
1F
100
AcDbEntity
  8
0
  6
DASHED
 62
     7
100
AcDbLine
 10
101.3000000000002
 20
94.7593567464949
 30
0.0
 11
101.3000000000002
 21
93.20935674649496
 31
0.0
  0
LINE
  5
2DB
330
1F
100
AcDbEntity
  8
0
  6
DASHED
 62
     7
100
AcDbLine
 10
90.10000000000022
 20
94.2593567464949
 30
0.0
 11
100.8000000000002
 21
94.2593567464949
 31
0.0
  0
LINE
  5
2DC
330
1F
100
AcDbEntity
  8
0
  6
DASHED
 62
     7
100
AcDbLine
 10
98.45000000000024
 20
87.5593567464949
 30
0.0
 11
98.45000000000024
 21
86.2593567464949
 31
0.0
  0
LINE
  5
2DD
330
1F
100
AcDbEntity
  8
0
  6
DASHED
 62
     7
100
AcDbLine
 10
97.05000000000021
 20
86.67478335838064
 30
0.0
 11
97.05000000000021
 21
87.8593567464949
 31
0.0
  0
LINE
  5
2DE
330
1F
100
AcDbEntity
  8
0
  6
DASHED
 62
     7
100
AcDbLine
 10
93.85000000000022
 20
86.67478335838064
 30
0.0
 11
93.85000000000022
 21
87.8593567464949
 31
0.0
  0
LINE
  5
2DF
330
1F
100
AcDbEntity
  8
0
  6
DASHED
 62
     7
100
AcDbLine
 10
92.85000000000022
 20
87.5593567464949
 30
0.0
 11
92.85000000000022
 21
88.1593567464949
 31
0.0
  0
LINE
  5
2E0
330
1F
100
AcDbEntity
  8
0
  6
DASHED
 62
     7
100
AcDbLine
 10
97.05000000000021
 20
87.8593567464949
 30
0.0
 11
93.85000000000022
 21
87.8593567464949
 31
0.0
  0
LINE
  5
2E1
330
1F
100
AcDbEntity
  8
0
  6
DASHED
 62
     7
100
AcDbLine
 10
93.85000000000022
 20
87.8593567464949
 30
0.0
 11
92.85000000000022
 21
87.8593567464949
 31
0.0
  0
LINE
  5
2E2
330
1F
100
AcDbEntity
  8
0
  6
DASHED
 62
     7
100
AcDbLine
 10
91.45000000000024
 20
87.5593567464949
 30
0.0
 11
92.85000000000022
 21
87.5593567464949
 31
0.0
  0
LINE
  5
2E3
330
1F
100
AcDbEntity
  8
0
  6
DASHED
 62
     7
100
AcDbLine
 10
101.3000000000002
 20
89.70935674649496
 30
0.0
 11
101.3000000000002
 21
88.1593567464949
 31
0.0
  0
LINE
  5
2E4
330
1F
100
AcDbEntity
  8
0
  6
DASHED
 62
     7
100
AcDbLine
 10
100.8000000000002
 20
89.70935674649496
 30
0.0
 11
100.8000000000002
 21
88.6593567464949
 31
0.0
  0
LINE
  5
2E5
330
1F
100
AcDbEntity
  8
0
  6
DASHED
 62
     7
100
AcDbLine
 10
93.70000000000024
 20
88.45935674649489
 30
0.0
 11
93.95000000000024
 21
88.45935674649489
 31
0.0
  0
LINE
  5
2E6
330
1F
100
AcDbEntity
  8
0
  6
DASHED
 62
     7
100
AcDbLine
 10
96.95000000000024
 20
88.45935674649489
 30
0.0
 11
97.20000000000024
 21
88.45935674649489
 31
0.0
  0
LINE
  5
2E7
330
1F
100
AcDbEntity
  8
0
  6
DASHED
 62
     7
100
AcDbLine
 10
93.95000000000024
 20
88.45935674649489
 30
0.0
 11
96.95000000000024
 21
88.45935674649489
 31
0.0
  0
LINE
  5
2E8
330
1F
100
AcDbEntity
  8
0
  6
DASHED
 62
     7
100
AcDbLine
 10
93.95000000000024
 20
88.1593567464949
 30
0.0
 11
93.95000000000024
 21
88.45935674649489
 31
0.0
  0
LINE
  5
2E9
330
1F
100
AcDbEntity
  8
0
  6
DASHED
 62
     7
100
AcDbLine
 10
96.95000000000024
 20
88.45935674649489
 30
0.0
 11
96.95000000000024
 21
88.1593567464949
 31
0.0
  0
LINE
  5
2EA
330
1F
100
AcDbEntity
  8
0
  6
DASHED
 62
     7
100
AcDbLine
 10
92.85000000000022
 20
88.1593567464949
 30
0.0
 11
91.45000000000024
 21
88.1593567464949
 31
0.0
  0
LINE
  5
2EB
330
1F
100
AcDbEntity
  8
0
  6
DASHED
 62
     7
100
AcDbLine
 10
93.95000000000024
 20
88.1593567464949
 30
0.0
 11
92.85000000000022
 21
88.1593567464949
 31
0.0
  0
LINE
  5
2EC
330
1F
100
AcDbEntity
  8
0
  6
DASHED
 62
     7
100
AcDbLine
 10
97.80000000000021
 20
88.6593567464949
 30
0.0
 11
100.8000000000002
 21
88.6593567464949
 31
0.0
  0
LINE
  5
2ED
330
1F
100
AcDbEntity
  8
0
  6
DASHED
 62
     7
100
AcDbLine
 10
99.45000000000024
 20
88.1593567464949
 30
0.0
 11
98.05000000000021
 21
88.1593567464949
 31
0.0
  0
LINE
  5
2EE
330
1F
100
AcDbEntity
  8
0
  6
DASHED
 62
     7
100
AcDbLine
 10
101.3000000000002
 20
88.1593567464949
 30
0.0
 11
99.45000000000024
 21
88.1593567464949
 31
0.0
  0
LINE
  5
2EF
330
1F
100
AcDbEntity
  8
0
  6
DASHED
 62
     7
100
AcDbLine
 10
90.10000000000022
 20
88.6593567464949
 30
0.0
 11
93.10000000000022
 21
88.6593567464949
 31
0.0
  0
LINE
  5
2F0
330
1F
100
AcDbEntity
  8
0
  6
DASHED
 62
     7
100
AcDbLine
 10
99.45000000000024
 20
87.5593567464949
 30
0.0
 11
98.05000000000021
 21
87.5593567464949
 31
0.0
  0
LINE
  5
2F1
330
1F
100
AcDbEntity
  8
0
  6
DASHED
 62
     7
100
AcDbLine
 10
99.45000000000024
 20
87.5593567464949
 30
0.0
 11
99.45000000000024
 21
88.1593567464949
 31
0.0
  0
LINE
  5
2F2
330
1F
100
AcDbEntity
  8
0
  6
DASHED
 62
     7
100
AcDbLine
 10
98.05000000000021
 20
87.5593567464949
 30
0.0
 11
98.05000000000021
 21
88.1593567464949
 31
0.0
  0
LINE
  5
2F3
330
1F
100
AcDbEntity
  8
0
  6
DASHED
 62
     7
100
AcDbLine
 10
98.05000000000021
 20
88.1593567464949
 30
0.0
 11
96.95000000000024
 21
88.1593567464949
 31
0.0
  0
LINE
  5
2F4
330
1F
100
AcDbEntity
  8
0
  6
DASHED
 62
     7
100
AcDbLine
 10
96.95000000000024
 20
88.1593567464949
 30
0.0
 11
93.95000000000024
 21
88.1593567464949
 31
0.0
  0
LINE
  5
2F5
330
1F
100
AcDbEntity
  8
0
  6
DASHED
 62
     7
100
AcDbLine
 10
98.05000000000021
 20
87.8593567464949
 30
0.0
 11
97.05000000000021
 21
87.8593567464949
 31
0.0
  0
LINE
  5
2F6
330
1F
100
AcDbEntity
  8
0
  6
DASHED
 62
     7
100
AcDbLine
 10
97.20000000000024
 20
88.95935674649489
 30
0.0
 11
93.70000000000024
 21
88.95935674649489
 31
0.0
  0
LINE
  5
2F7
330
1F
100
AcDbEntity
  8
0
  6
DASHED
 62
     7
100
AcDbLine
 10
89.60000000000022
 20
88.1593567464949
 30
0.0
 11
89.60000000000022
 21
89.70935674649496
 31
0.0
  0
LINE
  5
2F8
330
1F
100
AcDbEntity
  8
0
  6
DASHED
 62
     7
100
AcDbLine
 10
90.10000000000022
 20
88.6593567464949
 30
0.0
 11
90.10000000000022
 21
89.70935674649495
 31
0.0
  0
LINE
  5
2F9
330
1F
100
AcDbEntity
  8
0
  6
DASHED
 62
     7
100
AcDbLine
 10
92.70000000000024
 20
92.45935674649489
 30
0.0
 11
92.70000000000024
 21
89.45935674649489
 31
0.0
  0
LINE
  5
2FA
330
1F
100
AcDbEntity
  8
0
  6
DASHED
 62
     7
100
AcDbLine
 10
93.20000000000024
 20
89.45935674649489
 30
0.0
 11
93.20000000000024
 21
92.45935674649489
 31
0.0
  0
LINE
  5
2FB
330
1F
100
AcDbEntity
  8
0
  6
DASHED
 62
     7
100
AcDbLine
 10
98.20000000000024
 20
89.45935674649489
 30
0.0
 11
98.20000000000024
 21
91.9593567464949
 31
0.0
  0
LINE
  5
2FC
330
1F
100
AcDbEntity
  8
0
  6
DASHED
 62
     7
100
AcDbLine
 10
97.70000000000024
 20
91.9593567464949
 30
0.0
 11
97.70000000000024
 21
89.45935674649489
 31
0.0
  0
LINE
  5
2FD
330
1F
100
AcDbEntity
  8
0
  6
DASHED
 62
     7
100
AcDbLine
 10
98.20000000000024
 20
91.9593567464949
 30
0.0
 11
98.20000000000024
 21
92.15935674649491
 31
0.0
  0
LINE
  5
2FE
330
1F
100
AcDbEntity
  8
0
  6
DASHED
 62
     7
100
AcDbLine
 10
97.70000000000024
 20
91.9593567464949
 30
0.0
 11
98.20000000000024
 21
91.9593567464949
 31
0.0
  0
LINE
  5
2FF
330
1F
100
AcDbEntity
  8
0
  6
DASHED
 62
     7
100
AcDbLine
 10
97.70000000000024
 20
92.15935674649491
 30
0.0
 11
97.70000000000024
 21
91.9593567464949
 31
0.0
  0
LINE
  5
300
330
1F
100
AcDbEntity
  8
0
  6
DASHED
 62
     7
100
AcDbLine
 10
93.70000000000024
 20
92.95935674649489
 30
0.0
 11
97.20000000000024
 21
92.95935674649489
 31
0.0
  0
LINE
  5
301
330
1F
100
AcDbEntity
  8
0
  6
DASHED
 62
     7
100
AcDbLine
 10
98.20000000000024
 20
92.15935674649491
 30
0.0
 11
97.70000000000024
 21
92.15935674649491
 31
0.0
  0
LINE
  5
302
330
1F
100
AcDbEntity
  8
0
  6
DASHED
 62
     7
100
AcDbLine
 10
97.70000000000024
 20
92.45935674649489
 30
0.0
 11
97.70000000000024
 21
92.15935674649491
 31
0.0
  0
LINE
  5
303
330
1F
100
AcDbEntity
  8
0
  6
DASHED
 62
     7
100
AcDbLine
 10
98.20000000000024
 20
92.15935674649491
 30
0.0
 11
98.20000000000024
 21
92.45935674649489
 31
0.0
  0
LINE
  5
304
330
1F
100
AcDbEntity
  8
0
  6
DASHED
 62
     7
100
AcDbLine
 10
97.05000000000021
 20
86.2593567464949
 30
0.0
 11
98.45000000000024
 21
86.2593567464949
 31
0.0
  0
LINE
  5
305
330
1F
100
AcDbEntity
  8
0
  6
DASHED
 62
     7
100
AcDbLine
 10
93.85000000000022
 20
86.2593567464949
 30
0.0
 11
92.45000000000024
 21
86.2593567464949
 31
0.0
  0
LINE
  5
306
330
1F
100
AcDbEntity
  8
0
  6
DASHED
 62
     7
100
AcDbLine
 10
93.85000000000022
 20
86.10935674649495
 30
0.0
 11
93.85000000000022
 21
86.2593567464949
 31
0.0
  0
LINE
  5
307
330
1F
100
AcDbEntity
  8
0
  6
DASHED
 62
     7
100
AcDbLine
 10
93.85000000000022
 20
86.2593567464949
 30
0.0
 11
93.85000000000022
 21
86.67478335838064
 31
0.0
  0
LINE
  5
308
330
1F
100
AcDbEntity
  8
0
  6
DASHED
 62
     7
100
AcDbLine
 10
93.85000000000022
 20
86.67478335838064
 30
0.0
 11
97.05000000000021
 21
86.67478335838064
 31
0.0
  0
LINE
  5
309
330
1F
100
AcDbEntity
  8
0
  6
DASHED
 62
     7
100
AcDbLine
 10
97.05000000000021
 20
86.2593567464949
 30
0.0
 11
97.05000000000021
 21
86.10935674649495
 31
0.0
  0
LINE
  5
30A
330
1F
100
AcDbEntity
  8
0
  6
DASHED
 62
     7
100
AcDbLine
 10
97.05000000000021
 20
86.67478335838064
 30
0.0
 11
97.05000000000021
 21
86.2593567464949
 31
0.0
  0
LINE
  5
30B
330
1F
100
AcDbEntity
  8
0
  6
DASHED
 62
     7
100
AcDbLine
 10
91.45000000000024
 20
87.5593567464949
 30
0.0
 11
91.45000000000024
 21
88.1593567464949
 31
0.0
  0
LINE
  5
30C
330
1F
100
AcDbEntity
  8
0
  6
DASHED
 62
     7
100
AcDbLine
 10
91.45000000000024
 20
88.1593567464949
 30
0.0
 11
89.60000000000022
 21
88.1593567464949
 31
0.0
  0
LINE
  5
30D
330
1F
100
AcDbEntity
  8
0
  6
DASHED
 62
     7
100
AcDbLine
 10
92.45000000000024
 20
87.5593567464949
 30
0.0
 11
92.45000000000024
 21
86.2593567464949
 31
0.0
  0
LINE
  5
30E
330
1F
100
AcDbEntity
  8
0
  6
DASHED
 62
     7
100
AcDbLine
 10
97.55000000000021
 20
94.7593567464949
 30
0.0
 11
98.95000000000024
 21
94.7593567464949
 31
0.0
  0
LINE
  5
30F
330
1F
100
AcDbEntity
  8
0
  6
DASHED
 62
     7
100
AcDbLine
 10
97.55000000000021
 20
95.35935674649491
 30
0.0
 11
97.55000000000021
 21
94.7593567464949
 31
0.0
  0
LINE
  5
310
330
1F
100
AcDbEntity
  8
0
  6
DASHED
 62
     7
100
AcDbLine
 10
98.95000000000024
 20
94.7593567464949
 30
0.0
 11
101.3000000000002
 21
94.7593567464949
 31
0.0
  0
LINE
  5
311
330
1F
100
AcDbEntity
  8
0
  6
DASHED
 62
     7
100
AcDbLine
 10
98.95000000000024
 20
95.35935674649491
 30
0.0
 11
98.95000000000024
 21
94.7593567464949
 31
0.0
  0
LINE
  5
312
330
1F
100
AcDbEntity
  8
0
  6
DASHED
 62
     7
100
AcDbLine
 10
91.95000000000024
 20
94.7593567464949
 30
0.0
 11
93.35000000000022
 21
94.7593567464949
 31
0.0
  0
LINE
  5
313
330
1F
100
AcDbEntity
  8
0
  6
DASHED
 62
     7
100
AcDbLine
 10
93.35000000000022
 20
95.35935674649491
 30
0.0
 11
93.35000000000022
 21
94.7593567464949
 31
0.0
  0
LINE
  5
314
330
1F
100
AcDbEntity
  8
0
  6
DASHED
 62
     7
100
AcDbLine
 10
89.60000000000022
 20
94.7593567464949
 30
0.0
 11
91.95000000000024
 21
94.7593567464949
 31
0.0
  0
LINE
  5
315
330
1F
100
AcDbEntity
  8
0
  6
DASHED
 62
     7
100
AcDbLine
 10
91.95000000000024
 20
95.35935674649491
 30
0.0
 11
91.95000000000024
 21
94.7593567464949
 31
0.0
  0
LINE
  5
316
330
1F
100
AcDbEntity
  8
0
  6
DASHED
 62
     7
100
AcDbLine
 10
93.35000000000022
 20
94.7593567464949
 30
0.0
 11
97.55000000000021
 21
94.7593567464949
 31
0.0
  0
LINE
  5
317
330
1F
100
AcDbEntity
  8
0
  6
DASHED
 62
     7
100
AcDbLine
 10
98.95000000000024
 20
95.35935674649491
 30
0.0
 11
97.55000000000021
 21
95.35935674649491
 31
0.0
  0
LINE
  5
318
330
1F
100
AcDbEntity
  8
0
  6
DASHED
 62
     7
100
AcDbLine
 10
91.95000000000024
 20
95.35935674649491
 30
0.0
 11
93.35000000000022
 21
95.35935674649491
 31
0.0
  0
LINE
  5
319
330
1F
100
AcDbEntity
  8
0
  6
DASHED
 62
     7
100
AcDbLine
 10
72.95000000000013
 20
94.45935674649469
 30
0.0
 11
72.70000000000013
 21
94.45935674649469
 31
0.0
  0
LINE
  5
31A
330
1F
100
AcDbEntity
  8
0
  6
DASHED
 62
     7
100
AcDbLine
 10
72.95000000000013
 20
94.45935674649469
 30
0.0
 11
72.95000000000013
 21
94.75935674649469
 31
0.0
  0
LINE
  5
31B
330
1F
100
AcDbEntity
  8
0
  6
DASHED
 62
     7
100
AcDbLine
 10
71.85000000000014
 20
95.05935674649469
 30
0.0
 11
72.85000000000014
 21
95.0593567464947
 31
0.0
  0
LINE
  5
31C
330
1F
100
AcDbEntity
  8
0
  6
DASHED
 62
     7
100
AcDbLine
 10
70.45000000000013
 20
94.75935674649469
 30
0.0
 11
71.85000000000014
 21
94.75935674649469
 31
0.0
  0
LINE
  5
31D
330
1F
100
AcDbEntity
  8
0
  6
DASHED
 62
     7
100
AcDbLine
 10
71.85000000000014
 20
94.75935674649469
 30
0.0
 11
72.95000000000013
 21
94.75935674649469
 31
0.0
  0
LINE
  5
31E
330
1F
100
AcDbEntity
  8
0
  6
DASHED
 62
     7
100
AcDbLine
 10
68.60000000000014
 20
94.75935674649469
 30
0.0
 11
70.45000000000013
 21
94.75935674649469
 31
0.0
  0
LINE
  5
31F
330
1F
100
AcDbEntity
  8
0
  6
DASHED
 62
     7
100
AcDbLine
 10
75.95000000000013
 20
94.45935674649469
 30
0.0
 11
72.95000000000013
 21
94.45935674649469
 31
0.0
  0
LINE
  5
320
330
1F
100
AcDbEntity
  8
0
  6
DASHED
 62
     7
100
AcDbLine
 10
72.35000000000014
 20
87.55935674649469
 30
0.0
 11
72.35000000000014
 21
88.1593567464947
 31
0.0
  0
LINE
  5
321
330
1F
100
AcDbEntity
  8
0
  6
DASHED
 62
     7
100
AcDbLine
 10
71.85000000000014
 20
95.35935674649468
 30
0.0
 11
71.85000000000014
 21
94.75935674649469
 31
0.0
  0
LINE
  5
322
330
1F
100
AcDbEntity
  8
0
  6
DASHED
 62
     7
100
AcDbLine
 10
72.85000000000014
 20
96.24393013460895
 30
0.0
 11
72.85000000000014
 21
95.0593567464947
 31
0.0
  0
LINE
  5
323
330
1F
100
AcDbEntity
  8
0
  6
DASHED
 62
     7
100
AcDbLine
 10
72.85000000000014
 20
96.24393013460895
 30
0.0
 11
72.85000000000014
 21
96.6593567464947
 31
0.0
  0
LINE
  5
324
330
1F
100
AcDbEntity
  8
0
  6
DASHED
 62
     7
100
AcDbLine
 10
72.85000000000014
 20
96.6593567464947
 30
0.0
 11
71.45000000000013
 21
96.6593567464947
 31
0.0
  0
LINE
  5
325
330
1F
100
AcDbEntity
  8
0
  6
DASHED
 62
     7
100
AcDbLine
 10
71.45000000000013
 20
95.35935674649468
 30
0.0
 11
71.45000000000013
 21
96.6593567464947
 31
0.0
  0
LINE
  5
326
330
1F
100
AcDbEntity
  8
0
  6
DASHED
 62
     7
100
AcDbLine
 10
70.95000000000013
 20
87.55935674649469
 30
0.0
 11
72.35000000000014
 21
87.55935674649469
 31
0.0
  0
LINE
  5
327
330
1F
100
AcDbEntity
  8
0
  6
DASHED
 62
     7
100
AcDbLine
 10
80.30000000000015
 20
89.7093567464946
 30
0.0
 11
80.30000000000015
 21
88.1593567464947
 31
0.0
  0
LINE
  5
328
330
1F
100
AcDbEntity
  8
0
  6
DASHED
 62
     7
100
AcDbLine
 10
68.60000000000014
 20
88.1593567464947
 30
0.0
 11
68.60000000000014
 21
89.7093567464946
 31
0.0
  0
LINE
  5
329
330
1F
100
AcDbEntity
  8
0
  6
DASHED
 62
     7
100
AcDbLine
 10
68.60000000000014
 20
93.2093567464946
 30
0.0
 11
68.60000000000014
 21
94.75935674649469
 31
0.0
  0
LINE
  5
32A
330
1F
100
AcDbEntity
  8
0
  6
DASHED
 62
     7
100
AcDbLine
 10
72.35000000000014
 20
88.1593567464947
 30
0.0
 11
70.95000000000013
 21
88.1593567464947
 31
0.0
  0
LINE
  5
32B
330
1F
100
AcDbEntity
  8
0
  6
DASHED
 62
     7
100
AcDbLine
 10
70.95000000000013
 20
88.1593567464947
 30
0.0
 11
68.60000000000014
 21
88.1593567464947
 31
0.0
  0
LINE
  5
32C
330
1F
100
AcDbEntity
  8
0
  6
DASHED
 62
     7
100
AcDbLine
 10
77.95000000000013
 20
88.1593567464947
 30
0.0
 11
76.55000000000013
 21
88.1593567464947
 31
0.0
  0
LINE
  5
32D
330
1F
100
AcDbEntity
  8
0
  6
DASHED
 62
     7
100
AcDbLine
 10
80.30000000000015
 20
88.1593567464947
 30
0.0
 11
77.95000000000013
 21
88.1593567464947
 31
0.0
  0
LINE
  5
32E
330
1F
100
AcDbEntity
  8
0
  6
DASHED
 62
     7
100
AcDbLine
 10
76.55000000000013
 20
88.1593567464947
 30
0.0
 11
72.35000000000014
 21
88.1593567464947
 31
0.0
  0
LINE
  5
32F
330
1F
100
AcDbEntity
  8
0
  6
DASHED
 62
     7
100
AcDbLine
 10
77.20000000000013
 20
90.45935674649469
 30
0.0
 11
77.20000000000013
 21
93.45935674649469
 31
0.0
  0
LINE
  5
330
330
1F
100
AcDbEntity
  8
0
  6
DASHED
 62
     7
100
AcDbLine
 10
76.70000000000013
 20
93.45935674649469
 30
0.0
 11
76.70000000000013
 21
90.45935674649469
 31
0.0
  0
LINE
  5
331
330
1F
100
AcDbEntity
  8
0
  6
DASHED
 62
     7
100
AcDbLine
 10
79.80000000000015
 20
88.6593567464947
 30
0.0
 11
69.10000000000014
 21
88.6593567464947
 31
0.0
  0
LINE
  5
332
330
1F
100
AcDbEntity
  8
0
  6
DASHED
 62
     7
100
AcDbLine
 10
72.70000000000013
 20
93.95935674649469
 30
0.0
 11
76.20000000000013
 21
93.95935674649469
 31
0.0
  0
LINE
  5
333
330
1F
100
AcDbEntity
  8
0
  6
DASHED
 62
     7
100
AcDbLine
 10
72.20000000000013
 20
90.95935674649469
 30
0.0
 11
72.20000000000013
 21
93.45935674649469
 31
0.0
  0
LINE
  5
334
330
1F
100
AcDbEntity
  8
0
  6
DASHED
 62
     7
100
AcDbLine
 10
72.70000000000013
 20
89.45935674649469
 30
0.0
 11
76.20000000000013
 21
89.45935674649469
 31
0.0
  0
LINE
  5
335
330
1F
100
AcDbEntity
  8
0
  6
DASHED
 62
     7
100
AcDbLine
 10
72.20000000000013
 20
90.75935674649469
 30
0.0
 11
72.20000000000013
 21
90.95935674649469
 31
0.0
  0
LINE
  5
336
330
1F
100
AcDbEntity
  8
0
  6
DASHED
 62
     7
100
AcDbLine
 10
71.70000000000013
 20
90.95935674649469
 30
0.0
 11
71.70000000000013
 21
90.75935674649469
 31
0.0
  0
LINE
  5
337
330
1F
100
AcDbEntity
  8
0
  6
DASHED
 62
     7
100
AcDbLine
 10
71.70000000000013
 20
90.75935674649469
 30
0.0
 11
71.70000000000013
 21
90.45935674649469
 31
0.0
  0
LINE
  5
338
330
1F
100
AcDbEntity
  8
0
  6
DASHED
 62
     7
100
AcDbLine
 10
71.70000000000013
 20
90.75935674649469
 30
0.0
 11
72.20000000000013
 21
90.75935674649469
 31
0.0
  0
LINE
  5
339
330
1F
100
AcDbEntity
  8
0
  6
DASHED
 62
     7
100
AcDbLine
 10
72.20000000000013
 20
90.45935674649469
 30
0.0
 11
72.20000000000013
 21
90.75935674649469
 31
0.0
  0
LINE
  5
33A
330
1F
100
AcDbEntity
  8
0
  6
DASHED
 62
     7
100
AcDbLine
 10
72.20000000000013
 20
90.95935674649469
 30
0.0
 11
71.70000000000013
 21
90.95935674649469
 31
0.0
  0
LINE
  5
33B
330
1F
100
AcDbEntity
  8
0
  6
DASHED
 62
     7
100
AcDbLine
 10
76.20000000000013
 20
89.95935674649469
 30
0.0
 11
72.70000000000013
 21
89.95935674649469
 31
0.0
  0
LINE
  5
33C
330
1F
100
AcDbEntity
  8
0
  6
DASHED
 62
     7
100
AcDbLine
 10
71.70000000000013
 20
93.45935674649469
 30
0.0
 11
71.70000000000013
 21
90.95935674649469
 31
0.0
  0
LINE
  5
33D
330
1F
100
AcDbEntity
  8
0
  6
DASHED
 62
     7
100
AcDbLine
 10
72.10000000000014
 20
94.25935674649469
 30
0.0
 11
69.10000000000014
 21
94.25935674649469
 31
0.0
  0
LINE
  5
33E
330
1F
100
AcDbEntity
  8
0
  6
DASHED
 62
     7
100
AcDbLine
 10
69.10000000000014
 20
93.20935674649459
 30
0.0
 11
69.10000000000014
 21
94.25935674649469
 31
0.0
  0
LINE
  5
33F
330
1F
100
AcDbEntity
  8
0
  6
DASHED
 62
     7
100
AcDbLine
 10
79.80000000000015
 20
89.7093567464946
 30
0.0
 11
79.80000000000015
 21
88.6593567464947
 31
0.0
  0
LINE
  5
340
330
1F
100
AcDbEntity
  8
0
  6
DASHED
 62
     7
100
AcDbLine
 10
79.80000000000015
 20
94.25935674649469
 30
0.0
 11
76.80000000000013
 21
94.25935674649469
 31
0.0
  0
LINE
  5
341
330
1F
100
AcDbEntity
  8
0
  6
DASHED
 62
     7
100
AcDbLine
 10
80.30000000000015
 20
94.75935674649469
 30
0.0
 11
80.30000000000015
 21
93.2093567464946
 31
0.0
  0
LINE
  5
342
330
1F
100
AcDbEntity
  8
0
  6
DASHED
 62
     7
100
AcDbLine
 10
77.95000000000013
 20
87.55935674649469
 30
0.0
 11
77.95000000000013
 21
88.1593567464947
 31
0.0
  0
LINE
  5
343
330
1F
100
AcDbEntity
  8
0
  6
DASHED
 62
     7
100
AcDbLine
 10
76.05000000000013
 20
96.6593567464947
 30
0.0
 11
76.05000000000013
 21
96.24393013460895
 31
0.0
  0
LINE
  5
344
330
1F
100
AcDbEntity
  8
0
  6
DASHED
 62
     7
100
AcDbLine
 10
76.05000000000013
 20
96.80935674649459
 30
0.0
 11
76.05000000000013
 21
96.6593567464947
 31
0.0
  0
LINE
  5
345
330
1F
100
AcDbEntity
  8
0
  6
DASHED
 62
     7
100
AcDbLine
 10
76.05000000000013
 20
96.6593567464947
 30
0.0
 11
77.45000000000013
 21
96.6593567464947
 31
0.0
  0
LINE
  5
346
330
1F
100
AcDbEntity
  8
0
  6
DASHED
 62
     7
100
AcDbLine
 10
76.55000000000013
 20
87.55935674649469
 30
0.0
 11
76.55000000000013
 21
88.1593567464947
 31
0.0
  0
LINE
  5
347
330
1F
100
AcDbEntity
  8
0
  6
DASHED
 62
     7
100
AcDbLine
 10
76.20000000000013
 20
94.45935674649469
 30
0.0
 11
75.95000000000013
 21
94.45935674649469
 31
0.0
  0
LINE
  5
348
330
1F
100
AcDbEntity
  8
0
  6
DASHED
 62
     7
100
AcDbLine
 10
77.05000000000013
 20
95.35935674649468
 30
0.0
 11
77.05000000000013
 21
94.75935674649469
 31
0.0
  0
LINE
  5
349
330
1F
100
AcDbEntity
  8
0
  6
DASHED
 62
     7
100
AcDbLine
 10
75.95000000000013
 20
94.75935674649469
 30
0.0
 11
75.95000000000013
 21
94.45935674649469
 31
0.0
  0
LINE
  5
34A
330
1F
100
AcDbEntity
  8
0
  6
DASHED
 62
     7
100
AcDbLine
 10
77.45000000000013
 20
95.35935674649468
 30
0.0
 11
77.45000000000013
 21
96.6593567464947
 31
0.0
  0
LINE
  5
34B
330
1F
100
AcDbEntity
  8
0
  6
DASHED
 62
     7
100
AcDbLine
 10
76.05000000000013
 20
96.24393013460895
 30
0.0
 11
76.05000000000013
 21
95.0593567464947
 31
0.0
  0
LINE
  5
34C
330
1F
100
AcDbEntity
  8
0
  6
DASHED
 62
     7
100
AcDbLine
 10
76.05000000000013
 20
95.0593567464947
 30
0.0
 11
77.05000000000013
 21
95.05935674649469
 31
0.0
  0
LINE
  5
34D
330
1F
100
AcDbEntity
  8
0
  6
DASHED
 62
     7
100
AcDbLine
 10
75.95000000000013
 20
94.75935674649469
 30
0.0
 11
77.05000000000013
 21
94.75935674649469
 31
0.0
  0
LINE
  5
34E
330
1F
100
AcDbEntity
  8
0
  6
DASHED
 62
     7
100
AcDbLine
 10
77.95000000000013
 20
87.55935674649469
 30
0.0
 11
76.55000000000013
 21
87.55935674649469
 31
0.0
  0
LINE
  5
34F
330
1F
100
AcDbEntity
  8
0
  6
DASHED
 62
     7
100
AcDbLine
 10
79.80000000000015
 20
94.25935674649469
 30
0.0
 11
79.80000000000015
 21
93.2093567464946
 31
0.0
  0
LINE
  5
350
330
1F
100
AcDbEntity
  8
0
  6
DASHED
 62
     7
100
AcDbLine
 10
78.45000000000013
 20
95.35935674649468
 30
0.0
 11
77.05000000000013
 21
95.35935674649468
 31
0.0
  0
LINE
  5
351
330
1F
100
AcDbEntity
  8
0
  6
DASHED
 62
     7
100
AcDbLine
 10
70.45000000000013
 20
95.35935674649468
 30
0.0
 11
71.85000000000014
 21
95.35935674649468
 31
0.0
  0
LINE
  5
352
330
1F
100
AcDbEntity
  8
0
  6
DASHED
 62
     7
100
AcDbLine
 10
78.45000000000013
 20
95.35935674649468
 30
0.0
 11
78.45000000000013
 21
94.75935674649469
 31
0.0
  0
LINE
  5
353
330
1F
100
AcDbEntity
  8
0
  6
DASHED
 62
     7
100
AcDbLine
 10
70.45000000000013
 20
95.35935674649468
 30
0.0
 11
70.45000000000013
 21
94.75935674649469
 31
0.0
  0
LINE
  5
354
330
1F
100
AcDbEntity
  8
0
  6
DASHED
 62
     7
100
AcDbLine
 10
72.95000000000013
 20
94.75935674649469
 30
0.0
 11
75.95000000000013
 21
94.75935674649469
 31
0.0
  0
LINE
  5
355
330
1F
100
AcDbEntity
  8
0
  6
DASHED
 62
     7
100
AcDbLine
 10
77.05000000000013
 20
94.75935674649469
 30
0.0
 11
78.45000000000013
 21
94.75935674649469
 31
0.0
  0
LINE
  5
356
330
1F
100
AcDbEntity
  8
0
  6
DASHED
 62
     7
100
AcDbLine
 10
78.45000000000013
 20
94.75935674649469
 30
0.0
 11
80.30000000000015
 21
94.75935674649469
 31
0.0
  0
LINE
  5
357
330
1F
100
AcDbEntity
  8
0
  6
DASHED
 62
     7
100
AcDbLine
 10
72.85000000000014
 20
95.0593567464947
 30
0.0
 11
76.05000000000013
 21
95.0593567464947
 31
0.0
  0
LINE
  5
358
330
1F
100
AcDbEntity
  8
0
  6
DASHED
 62
     7
100
AcDbLine
 10
72.85000000000014
 20
96.6593567464947
 30
0.0
 11
72.85000000000014
 21
96.80935674649459
 31
0.0
  0
LINE
  5
359
330
1F
100
AcDbEntity
  8
0
  6
DASHED
 62
     7
100
AcDbLine
 10
76.05000000000013
 20
96.24393013460895
 30
0.0
 11
72.85000000000014
 21
96.24393013460895
 31
0.0
  0
LINE
  5
35A
330
1F
100
AcDbEntity
  8
0
  6
DASHED
 62
     7
100
AcDbLine
 10
69.10000000000014
 20
88.6593567464947
 30
0.0
 11
69.10000000000014
 21
89.70935674649459
 31
0.0
  0
LINE
  5
35B
330
1F
100
AcDbEntity
  8
0
  6
DASHED
 62
     7
100
AcDbLine
 10
70.95000000000013
 20
87.55935674649469
 30
0.0
 11
70.95000000000013
 21
88.1593567464947
 31
0.0
  0
LINE
  5
35C
330
1F
100
AcDbEntity
  8
0
  6
Continuous
 62
     7
100
AcDbLine
 10
62.90000000000012
 20
104.4593567464948
 30
0.0
 11
62.90000000000012
 21
106.4593567464949
 31
0.0
  0
LINE
  5
35D
330
1F
100
AcDbEntity
  8
0
  6
Continuous
 62
     7
100
AcDbLine
 10
62.9942363139717
 20
99.45935674649482
 30
0.0
 11
62.90000000000012
 21
99.45935674649482
 31
0.0
  0
LINE
  5
35E
330
1F
100
AcDbEntity
  8
0
  6
Continuous
 62
     7
100
AcDbLine
 10
64.95000000000013
 20
104.4593567464948
 30
0.0
 11
62.90000000000012
 21
104.4593567464948
 31
0.0
  0
LINE
  5
35F
330
1F
100
AcDbEntity
  8
0
  6
Continuous
 62
     7
100
AcDbLine
 10
62.90000000000012
 20
103.4593567464948
 30
0.0
 11
62.9942363139717
 21
103.4593567464948
 31
0.0
  0
LINE
  5
360
330
1F
100
AcDbEntity
  8
0
  6
Continuous
 62
     7
100
AcDbLine
 10
62.90000000000012
 20
103.4593567464948
 30
0.0
 11
62.90000000000012
 21
104.4593567464948
 31
0.0
  0
LINE
  5
361
330
1F
100
AcDbEntity
  8
0
  6
Continuous
 62
     7
100
AcDbLine
 10
64.95000000000013
 20
106.4593567464948
 30
0.0
 11
64.95000000000013
 21
104.4593567464948
 31
0.0
  0
LINE
  5
362
330
1F
100
AcDbEntity
  8
0
  6
Continuous
 62
     7
100
AcDbLine
 10
62.90000000000012
 20
102.9330740092518
 30
0.0
 11
62.90000000000012
 21
103.0856394837379
 31
0.0
  0
LINE
  5
363
330
1F
100
AcDbEntity
  8
0
  6
Continuous
 62
     7
100
AcDbLine
 10
62.90000000000012
 20
103.0856394837379
 30
0.0
 11
62.90000000000012
 21
103.4593567464948
 31
0.0
  0
LINE
  5
364
330
1F
100
AcDbEntity
  8
0
  6
Continuous
 62
     7
100
AcDbLine
 10
63.90000000000012
 20
103.0093567464948
 30
0.0
 11
63.90000000000006
 21
99.90935674649484
 31
0.0
  0
LINE
  5
365
330
1F
100
AcDbEntity
  8
0
  6
Continuous
 62
     7
100
AcDbLine
 10
63.06145598562981
 20
103.2853194873466
 30
0.0
 11
63.0371181354349
 21
103.267396383603
 31
0.0
  0
LINE
  5
366
330
1F
100
AcDbEntity
  8
0
  6
Continuous
 62
     7
100
AcDbLine
 10
64.95000000000013
 20
106.4593567464948
 30
0.0
 11
66.15000000000012
 21
106.4593567464949
 31
0.0
  0
LINE
  5
367
330
1F
100
AcDbEntity
  8
0
  6
Continuous
 62
     7
100
AcDbLine
 10
62.90000000000012
 20
99.83307400925179
 30
0.0
 11
62.90000000000012
 21
99.98563948373786
 31
0.0
  0
LINE
  5
368
330
1F
100
AcDbEntity
  8
0
  6
Continuous
 62
     7
100
AcDbLine
 10
62.90000000000012
 20
99.45935674649482
 30
0.0
 11
62.90000000000012
 21
99.83307400925179
 31
0.0
  0
LINE
  5
369
330
1F
100
AcDbEntity
  8
0
  6
Continuous
 62
     7
100
AcDbLine
 10
63.0371181354349
 20
99.65131710938664
 30
0.0
 11
63.06145598562981
 21
99.63339400564305
 31
0.0
  0
LINE
  5
36A
330
1F
100
AcDbEntity
  8
0
  6
Continuous
 62
     7
100
AcDbLine
 10
65.40000000000015
 20
102.4593567464948
 30
0.0
 11
65.40000000000015
 21
99.45935674649476
 31
0.0
  0
LINE
  5
36B
330
1F
100
AcDbEntity
  8
0
  6
Continuous
 62
     7
100
AcDbLine
 10
62.90000000000012
 20
99.98563948373786
 30
0.0
 11
62.90000000000012
 21
102.9330740092518
 31
0.0
  0
LINE
  5
36C
330
1F
100
AcDbEntity
  8
0
  6
Continuous
 62
     7
100
AcDbLine
 10
63.31692500357653
 20
102.7374644103838
 30
0.0
 11
63.90000000000012
 21
103.0093567464948
 31
0.0
  0
LINE
  5
36D
330
1F
100
AcDbEntity
  8
0
  6
Continuous
 62
     7
100
AcDbLine
 10
63.90000000000006
 20
99.90935674649484
 30
0.0
 11
63.31692500357653
 21
100.1812490826058
 31
0.0
  0
LINE
  5
36E
330
1F
100
AcDbEntity
  8
0
  6
Continuous
 62
     7
100
AcDbLine
 10
79.10000000000016
 20
102.4593567464948
 30
0.0
 11
79.10000000000016
 21
97.25935674649465
 31
0.0
  0
LINE
  5
36F
330
1F
100
AcDbEntity
  8
0
  6
Continuous
 62
     7
100
AcDbLine
 10
64.95000000000013
 20
106.4593567464948
 30
0.0
 11
62.90000000000012
 21
106.4593567464949
 31
0.0
  0
LINE
  5
370
330
1F
100
AcDbEntity
  8
0
  6
Continuous
 62
     7
100
AcDbLine
 10
73.35000000000016
 20
74.45935674649482
 30
0.0
 11
73.35000000000016
 21
76.4593567464947
 31
0.0
  0
LINE
  5
371
330
1F
100
AcDbEntity
  8
0
  6
Continuous
 62
     7
100
AcDbLine
 10
64.40000000000015
 20
86.90935674649461
 30
0.0
 11
64.40000000000015
 21
84.95935674649485
 31
0.0
  0
LINE
  5
372
330
1F
100
AcDbEntity
  8
0
  6
Continuous
 62
     7
100
AcDbLine
 10
67.15000000000012
 20
74.45935674649482
 30
0.0
 11
73.35000000000016
 21
74.45935674649482
 31
0.0
  0
LINE
  5
373
330
1F
100
AcDbEntity
  8
0
  6
Continuous
 62
     7
100
AcDbLine
 10
107.9000000000002
 20
82.59541963107128
 30
0.0
 11
107.9000000000002
 21
81.97991588354208
 31
0.0
  0
LINE
  5
374
330
1F
100
AcDbEntity
  8
0
  6
Continuous
 62
     7
100
AcDbLine
 10
107.9000000000002
 20
80.93879760944753
 30
0.0
 11
107.9000000000002
 21
80.3232938619183
 31
0.0
  0
LINE
  5
375
330
1F
100
AcDbEntity
  8
0
  6
Continuous
 62
     7
100
AcDbLine
 10
107.2845236523483
 20
82.62235541217149
 30
0.0
 11
107.615476347652
 21
82.77668118847865
 31
0.0
  0
LINE
  5
376
330
1F
100
AcDbEntity
  8
0
  6
Continuous
 62
     7
100
AcDbLine
 10
107.615476347652
 20
80.14203230451096
 30
0.0
 11
107.2845236523483
 21
80.29635808081812
 31
0.0
  0
LINE
  5
377
330
1F
100
AcDbEntity
  8
0
  6
Continuous
 62
     7
100
AcDbLine
 10
70.20000000000016
 20
84.45935674649485
 30
0.0
 11
72.70000000000016
 21
84.45935674649485
 31
0.0
  0
LINE
  5
378
330
1F
100
AcDbEntity
  8
0
  6
Continuous
 62
     7
100
AcDbLine
 10
70.20000000000016
 20
86.90935674649461
 30
0.0
 11
72.20000000000016
 21
86.90935674649462
 31
0.0
  0
LINE
  5
379
330
1F
100
AcDbEntity
  8
0
  6
Continuous
 62
     7
100
AcDbLine
 10
78.70000000000013
 20
84.45935674649485
 30
0.0
 11
81.95000000000019
 21
84.45935674649486
 31
0.0
  0
LINE
  5
37A
330
1F
100
AcDbEntity
  8
0
  6
Continuous
 62
     7
100
AcDbLine
 10
107.1567120772126
 20
81.65461594791878
 30
0.0
 11
107.7432879227878
 21
81.78465668211808
 31
0.0
  0
LINE
  5
37B
330
1F
100
AcDbEntity
  8
0
  6
Continuous
 62
     7
100
AcDbLine
 10
107.7432879227878
 20
81.13405681087153
 30
0.0
 11
107.1567120772126
 21
81.26409754507083
 31
0.0
  0
LINE
  5
37C
330
1F
100
AcDbEntity
  8
0
  6
Continuous
 62
     7
100
AcDbLine
 10
107.0000000000002
 20
80.11509652341081
 30
0.0
 11
107.0000000000002
 21
78.45935674649482
 31
0.0
  0
LINE
  5
37D
330
1F
100
AcDbEntity
  8
0
  6
Continuous
 62
     7
100
AcDbLine
 10
84.95000000000019
 20
81.45935674649486
 30
0.0
 11
84.95000000000019
 21
78.4593567464948
 31
0.0
  0
LINE
  5
37E
330
1F
100
AcDbEntity
  8
0
  6
Continuous
 62
     7
100
AcDbLine
 10
85.45000000000019
 20
77.9593567464948
 30
0.0
 11
88.2500000000002
 21
77.9593567464948
 31
0.0
  0
LINE
  5
37F
330
1F
100
AcDbEntity
  8
0
  6
Continuous
 62
     7
100
AcDbLine
 10
88.7500000000002
 20
79.45935674649486
 30
0.0
 11
88.7500000000002
 21
78.4593567464948
 31
0.0
  0
LINE
  5
380
330
1F
100
AcDbEntity
  8
0
  6
Continuous
 62
     7
100
AcDbLine
 10
95.85000000000022
 20
79.45935674649486
 30
0.0
 11
95.85000000000022
 21
78.45935674649482
 31
0.0
  0
LINE
  5
381
330
1F
100
AcDbEntity
  8
0
  6
Continuous
 62
     7
100
AcDbLine
 10
100.6000000000002
 20
77.9593567464948
 30
0.0
 11
102.9500000000002
 21
77.9593567464948
 31
0.0
  0
LINE
  5
382
330
1F
100
AcDbEntity
  8
0
  6
Continuous
 62
     7
100
AcDbLine
 10
90.2500000000002
 20
78.4593567464948
 30
0.0
 11
94.35000000000022
 21
78.4593567464948
 31
0.0
  0
LINE
  5
383
330
1F
100
AcDbEntity
  8
0
  6
Continuous
 62
     7
100
AcDbLine
 10
103.4500000000002
 20
78.4593567464948
 30
0.0
 11
103.4500000000002
 21
79.45935674649485
 31
0.0
  0
LINE
  5
384
330
1F
100
AcDbEntity
  8
0
  6
Continuous
 62
     7
100
AcDbLine
 10
92.80000000000021
 20
79.95935674649485
 30
0.0
 11
95.35000000000022
 21
79.95935674649486
 31
0.0
  0
LINE
  5
385
330
1F
100
AcDbEntity
  8
0
  6
Continuous
 62
     7
100
AcDbLine
 10
103.9500000000002
 20
79.95935674649485
 30
0.0
 11
105.0000000000002
 21
79.95935674649485
 31
0.0
  0
LINE
  5
386
330
1F
100
AcDbEntity
  8
0
  6
Continuous
 62
     7
100
AcDbLine
 10
105.5000000000002
 20
86.90935674649498
 30
0.0
 11
105.5000000000002
 21
80.45935674649485
 31
0.0
  0
LINE
  5
387
330
1F
100
AcDbEntity
  8
0
  6
Continuous
 62
     7
100
AcDbLine
 10
104.9500000000002
 20
76.45935674649479
 30
0.0
 11
102.7500000000002
 21
76.45935674649482
 31
0.0
  0
LINE
  5
388
330
1F
100
AcDbEntity
  8
0
  6
Continuous
 62
     7
100
AcDbLine
 10
104.9500000000002
 20
76.45935674649479
 30
0.0
 11
104.9500000000002
 21
78.45935674649482
 31
0.0
  0
LINE
  5
389
330
1F
100
AcDbEntity
  8
0
  6
Continuous
 62
     7
100
AcDbLine
 10
104.9500000000002
 20
78.45935674649482
 30
0.0
 11
107.0000000000002
 21
78.45935674649482
 31
0.0
  0
LINE
  5
38A
330
1F
100
AcDbEntity
  8
0
  6
Continuous
 62
     7
100
AcDbLine
 10
104.9500000000002
 20
76.45935674649479
 30
0.0
 11
107.0000000000001
 21
76.45935674649482
 31
0.0
  0
LINE
  5
38B
330
1F
100
AcDbEntity
  8
0
  6
Continuous
 62
     7
100
AcDbLine
 10
107.0000000000001
 20
76.45935674649482
 30
0.0
 11
107.0000000000002
 21
78.45935674649482
 31
0.0
  0
LINE
  5
38C
330
1F
100
AcDbEntity
  8
0
  6
Continuous
 62
     7
100
AcDbLine
 10
75.55000000000013
 20
76.45935674649469
 30
0.0
 11
73.35000000000016
 21
76.4593567464947
 31
0.0
  0
LINE
  5
38D
330
1F
100
AcDbEntity
  8
0
  6
Continuous
 62
     7
100
AcDbLine
 10
100.1000000000002
 20
85.65935674649499
 30
0.0
 11
100.1000000000002
 21
78.4593567464948
 31
0.0
  0
LINE
  5
38E
330
1F
100
AcDbEntity
  8
0
  6
Continuous
 62
     7
100
AcDbLine
 10
98.10000000000016
 20
77.9593567464948
 30
0.0
 11
100.6000000000002
 21
77.9593567464948
 31
0.0
  0
LINE
  5
38F
330
1F
100
AcDbEntity
  8
0
  6
Continuous
 62
     7
100
AcDbLine
 10
96.35000000000022
 20
77.95935674649482
 30
0.0
 11
98.10000000000016
 21
77.9593567464948
 31
0.0
  0
LINE
  5
390
330
1F
100
AcDbEntity
  8
0
  6
Continuous
 62
     7
100
AcDbLine
 10
96.55000000000021
 20
74.45935674649482
 30
0.0
 11
102.7500000000002
 21
74.45935674649482
 31
0.0
  0
LINE
  5
391
330
1F
100
AcDbEntity
  8
0
  6
Continuous
 62
     7
100
AcDbLine
 10
98.60000000000016
 20
78.4593567464948
 30
0.0
 11
98.60000000000016
 21
83.85935674649495
 31
0.0
  0
LINE
  5
392
330
1F
100
AcDbEntity
  8
0
  6
Continuous
 62
     7
100
AcDbLine
 10
102.7500000000002
 20
74.45935674649482
 30
0.0
 11
102.7500000000002
 21
76.45935674649482
 31
0.0
  0
LINE
  5
393
330
1F
100
AcDbEntity
  8
0
  6
Continuous
 62
     7
100
AcDbLine
 10
96.55000000000021
 20
76.45935674649482
 30
0.0
 11
96.55000000000021
 21
74.45935674649482
 31
0.0
  0
LINE
  5
394
330
1F
100
AcDbEntity
  8
0
  6
Continuous
 62
     7
100
AcDbLine
 10
96.55000000000021
 20
76.45935674649482
 30
0.0
 11
94.35000000000022
 21
76.45935674649479
 31
0.0
  0
LINE
  5
395
330
1F
100
AcDbEntity
  8
0
  6
Continuous
 62
     7
100
AcDbLine
 10
94.35000000000022
 20
76.45935674649479
 30
0.0
 11
90.2500000000002
 21
76.45935674649479
 31
0.0
  0
LINE
  5
396
330
1F
100
AcDbEntity
  8
0
  6
Continuous
 62
     7
100
AcDbLine
 10
90.80000000000021
 20
85.65935674649499
 30
0.0
 11
90.80000000000021
 21
80.45935674649485
 31
0.0
  0
LINE
  5
397
330
1F
100
AcDbEntity
  8
0
  6
Continuous
 62
     7
100
AcDbLine
 10
92.30000000000015
 20
83.85935674649494
 30
0.0
 11
92.30000000000021
 21
80.45935674649485
 31
0.0
  0
LINE
  5
398
330
1F
100
AcDbEntity
  8
0
  6
Continuous
 62
     7
100
AcDbLine
 10
89.2500000000002
 20
79.95935674649486
 30
0.0
 11
90.30000000000021
 21
79.95935674649485
 31
0.0
  0
LINE
  5
399
330
1F
100
AcDbEntity
  8
0
  6
Continuous
 62
     7
100
AcDbLine
 10
90.30000000000021
 20
79.95935674649485
 30
0.0
 11
92.80000000000021
 21
79.95935674649485
 31
0.0
  0
LINE
  5
39A
330
1F
100
AcDbEntity
  8
0
  6
Continuous
 62
     7
100
AcDbLine
 10
94.35000000000022
 20
78.4593567464948
 30
0.0
 11
94.35000000000022
 21
76.45935674649479
 31
0.0
  0
LINE
  5
39B
330
1F
100
AcDbEntity
  8
0
  6
Continuous
 62
     7
100
AcDbLine
 10
90.2500000000002
 20
76.45935674649479
 30
0.0
 11
88.05000000000021
 21
76.45935674649482
 31
0.0
  0
LINE
  5
39C
330
1F
100
AcDbEntity
  8
0
  6
Continuous
 62
     7
100
AcDbLine
 10
90.2500000000002
 20
76.45935674649479
 30
0.0
 11
90.2500000000002
 21
78.4593567464948
 31
0.0
  0
LINE
  5
39D
330
1F
100
AcDbEntity
  8
0
  6
Continuous
 62
     7
100
AcDbLine
 10
88.05000000000021
 20
74.45935674649482
 30
0.0
 11
88.05000000000021
 21
76.45935674649482
 31
0.0
  0
LINE
  5
39E
330
1F
100
AcDbEntity
  8
0
  6
Continuous
 62
     7
100
AcDbLine
 10
79.65000000000018
 20
78.4593567464948
 30
0.0
 11
79.65000000000018
 21
76.45935674649469
 31
0.0
  0
LINE
  5
39F
330
1F
100
AcDbEntity
  8
0
  6
Continuous
 62
     7
100
AcDbLine
 10
81.85000000000016
 20
76.4593567464947
 30
0.0
 11
81.85000000000016
 21
74.45935674649482
 31
0.0
  0
LINE
  5
3A0
330
1F
100
AcDbEntity
  8
0
  6
Continuous
 62
     7
100
AcDbLine
 10
75.55000000000013
 20
76.45935674649469
 30
0.0
 11
75.55000000000013
 21
78.4593567464948
 31
0.0
  0
LINE
  5
3A1
330
1F
100
AcDbEntity
  8
0
  6
Continuous
 62
     7
100
AcDbLine
 10
75.55000000000013
 20
76.45935674649469
 30
0.0
 11
79.65000000000018
 21
76.45935674649469
 31
0.0
  0
LINE
  5
3A2
330
1F
100
AcDbEntity
  8
0
  6
Continuous
 62
     7
100
AcDbLine
 10
81.85000000000016
 20
74.45935674649482
 30
0.0
 11
88.05000000000021
 21
74.45935674649482
 31
0.0
  0
LINE
  5
3A3
330
1F
100
AcDbEntity
  8
0
  6
Continuous
 62
     7
100
AcDbLine
 10
81.85000000000016
 20
76.4593567464947
 30
0.0
 11
79.65000000000018
 21
76.45935674649469
 31
0.0
  0
LINE
  5
3A4
330
1F
100
AcDbEntity
  8
0
  6
Continuous
 62
     7
100
AcDbLine
 10
75.55000000000013
 20
78.4593567464948
 30
0.0
 11
79.65000000000018
 21
78.4593567464948
 31
0.0
  0
LINE
  5
3A5
330
1F
100
AcDbEntity
  8
0
  6
Continuous
 62
     7
100
AcDbLine
 10
89.55000000000015
 20
93.20935674649496
 30
0.0
 11
89.55000000000021
 21
94.80935674649498
 31
0.0
  0
LINE
  5
3A6
330
1F
100
AcDbEntity
  8
0
  6
Continuous
 62
     7
100
AcDbLine
 10
89.55000000000015
 20
93.20935674649496
 30
0.0
 11
90.2500000000002
 21
93.20935674649495
 31
0.0
  0
LINE
  5
3A7
330
1F
100
AcDbEntity
  8
0
  6
Continuous
 62
     7
100
AcDbLine
 10
80.35000000000016
 20
93.2093567464946
 30
0.0
 11
79.65000000000018
 21
93.2093567464946
 31
0.0
  0
LINE
  5
3A8
330
1F
100
AcDbEntity
  8
0
  6
Continuous
 62
     7
100
AcDbLine
 10
101.3500000000002
 20
93.20935674649496
 30
0.0
 11
100.6500000000002
 21
93.20935674649496
 31
0.0
  0
LINE
  5
3A9
330
1F
100
AcDbEntity
  8
0
  6
Continuous
 62
     7
100
AcDbLine
 10
101.3500000000002
 20
88.109356746495
 30
0.0
 11
99.70000000000019
 21
88.109356746495
 31
0.0
  0
LINE
  5
3AA
330
1F
100
AcDbEntity
  8
0
  6
Continuous
 62
     7
100
AcDbLine
 10
101.8500000000002
 20
87.60935674649498
 30
0.0
 11
100.2000000000002
 21
87.60935674649498
 31
0.0
  0
LINE
  5
3AB
330
1F
100
AcDbEntity
  8
0
  6
Continuous
 62
     7
100
AcDbLine
 10
98.60000000000016
 20
86.90935674649496
 30
0.0
 11
100.2000000000002
 21
86.90935674649496
 31
0.0
  0
LINE
  5
3AC
330
1F
100
AcDbEntity
  8
0
  6
Continuous
 62
     7
100
AcDbLine
 10
98.60000000000016
 20
87.40935674649494
 30
0.0
 11
98.60000000000016
 21
86.90935674649496
 31
0.0
  0
LINE
  5
3AD
330
1F
100
AcDbEntity
  8
0
  6
Continuous
 62
     7
100
AcDbLine
 10
100.2000000000002
 20
86.90935674649496
 30
0.0
 11
99.70000000000019
 21
87.40935674649498
 31
0.0
  0
LINE
  5
3AE
330
1F
100
AcDbEntity
  8
0
  6
Continuous
 62
     7
100
AcDbLine
 10
100.2000000000002
 20
86.90935674649496
 30
0.0
 11
100.2000000000002
 21
87.60935674649498
 31
0.0
  0
LINE
  5
3AF
330
1F
100
AcDbEntity
  8
0
  6
Continuous
 62
     7
100
AcDbLine
 10
98.60000000000016
 20
87.40935674649494
 30
0.0
 11
99.70000000000019
 21
87.40935674649498
 31
0.0
  0
LINE
  5
3B0
330
1F
100
AcDbEntity
  8
0
  6
Continuous
 62
     7
100
AcDbLine
 10
80.85000000000016
 20
87.60935674649463
 30
0.0
 11
78.70000000000013
 21
87.60935674649463
 31
0.0
  0
LINE
  5
3B1
330
1F
100
AcDbEntity
  8
0
  6
Continuous
 62
     7
100
AcDbLine
 10
78.20000000000013
 20
88.10935674649458
 30
0.0
 11
78.20000000000013
 21
87.40935674649462
 31
0.0
  0
LINE
  5
3B2
330
1F
100
AcDbEntity
  8
0
  6
Continuous
 62
     7
100
AcDbLine
 10
72.20000000000016
 20
87.40935674649461
 30
0.0
 11
70.70000000000016
 21
87.40935674649461
 31
0.0
  0
LINE
  5
3B3
330
1F
100
AcDbEntity
  8
0
  6
Continuous
 62
     7
100
AcDbLine
 10
101.3500000000002
 20
89.70935674649496
 30
0.0
 11
100.6500000000002
 21
89.70935674649496
 31
0.0
  0
LINE
  5
3B4
330
1F
100
AcDbEntity
  8
0
  6
Continuous
 62
     7
100
AcDbLine
 10
77.95000000000013
 20
88.10935674649458
 30
0.0
 11
78.20000000000013
 21
88.10935674649458
 31
0.0
  0
LINE
  5
3B5
330
1F
100
AcDbEntity
  8
0
  6
Continuous
 62
     7
100
AcDbLine
 10
80.35000000000016
 20
88.10935674649463
 30
0.0
 11
78.20000000000013
 21
88.10935674649458
 31
0.0
  0
LINE
  5
3B6
330
1F
100
AcDbEntity
  8
0
  6
Continuous
 62
     7
100
AcDbLine
 10
99.70000000000019
 20
88.109356746495
 30
0.0
 11
99.45000000000024
 21
88.10935674649495
 31
0.0
  0
LINE
  5
3B7
330
1F
100
AcDbEntity
  8
0
  6
Continuous
 62
     7
100
AcDbLine
 10
99.70000000000019
 20
88.109356746495
 30
0.0
 11
99.70000000000019
 21
87.40935674649498
 31
0.0
  0
LINE
  5
3B8
330
1F
100
AcDbEntity
  8
0
  6
Continuous
 62
     7
100
AcDbLine
 10
98.60000000000016
 20
87.5593567464949
 30
0.0
 11
98.60000000000016
 21
87.40935674649494
 31
0.0
  0
LINE
  5
3B9
330
1F
100
AcDbEntity
  8
0
  6
Continuous
 62
     7
100
AcDbLine
 10
72.35000000000014
 20
88.10935674649458
 30
0.0
 11
76.55000000000013
 21
88.10935674649458
 31
0.0
  0
LINE
  5
3BA
330
1F
100
AcDbEntity
  8
0
  6
Continuous
 62
     7
100
AcDbLine
 10
89.55000000000021
 20
88.109356746495
 30
0.0
 11
89.55000000000021
 21
89.70935674649496
 31
0.0
  0
LINE
  5
3BB
330
1F
100
AcDbEntity
  8
0
  6
Continuous
 62
     7
100
AcDbLine
 10
78.20000000000013
 20
88.10935674649458
 30
0.0
 11
78.70000000000013
 21
87.60935674649463
 31
0.0
  0
LINE
  5
3BC
330
1F
100
AcDbEntity
  8
0
  6
Continuous
 62
     7
100
AcDbLine
 10
99.70000000000019
 20
88.109356746495
 30
0.0
 11
100.2000000000002
 21
87.60935674649498
 31
0.0
  0
LINE
  5
3BD
330
1F
100
AcDbEntity
  8
0
  6
Continuous
 62
     7
100
AcDbLine
 10
80.85000000000016
 20
95.30935674649463
 30
0.0
 11
80.85000000000016
 21
87.60935674649463
 31
0.0
  0
LINE
  5
3BE
330
1F
100
AcDbEntity
  8
0
  6
Continuous
 62
     7
100
AcDbLine
 10
89.05000000000015
 20
87.60935674649498
 30
0.0
 11
89.05000000000015
 21
95.309356746495
 31
0.0
  0
LINE
  5
3BF
330
1F
100
AcDbEntity
  8
0
  6
Continuous
 62
     7
100
AcDbLine
 10
101.3500000000002
 20
89.70935674649496
 30
0.0
 11
101.3500000000002
 21
88.109356746495
 31
0.0
  0
LINE
  5
3C0
330
1F
100
AcDbEntity
  8
0
  6
Continuous
 62
     7
100
AcDbLine
 10
101.3500000000002
 20
94.809356746495
 30
0.0
 11
101.3500000000002
 21
93.20935674649496
 31
0.0
  0
LINE
  5
3C1
330
1F
100
AcDbEntity
  8
0
  6
Continuous
 62
     7
100
AcDbLine
 10
101.3500000000002
 20
93.20935674649496
 30
0.0
 11
101.3500000000002
 21
89.70935674649496
 31
0.0
  0
LINE
  5
3C2
330
1F
100
AcDbEntity
  8
0
  6
Continuous
 62
     7
100
AcDbLine
 10
105.5000000000002
 20
96.009356746495
 30
0.0
 11
105.5000000000002
 21
86.90935674649498
 31
0.0
  0
LINE
  5
3C3
330
1F
100
AcDbEntity
  8
0
  6
Continuous
 62
     7
100
AcDbLine
 10
105.0000000000002
 20
87.40935674649498
 30
0.0
 11
102.9500000000002
 21
87.40935674649498
 31
0.0
  0
LINE
  5
3C4
330
1F
100
AcDbEntity
  8
0
  6
Continuous
 62
     7
100
AcDbLine
 10
102.4500000000002
 20
86.90935674649498
 30
0.0
 11
102.4500000000002
 21
86.65935674649499
 31
0.0
  0
LINE
  5
3C5
330
1F
100
AcDbEntity
  8
0
  6
Continuous
 62
     7
100
AcDbLine
 10
101.8500000000002
 20
95.30935674649501
 30
0.0
 11
101.8500000000002
 21
87.60935674649498
 31
0.0
  0
LINE
  5
3C6
330
1F
100
AcDbEntity
  8
0
  6
Continuous
 62
     7
100
AcDbLine
 10
107.0000000000001
 20
100.1150965234108
 30
0.0
 11
107.0000000000002
 21
82.8036169695788
 31
0.0
  0
LINE
  5
3C7
330
1F
100
AcDbEntity
  8
0
  6
Continuous
 62
     7
100
AcDbLine
 10
101.3500000000002
 20
88.109356746495
 30
0.0
 11
101.8500000000002
 21
87.60935674649498
 31
0.0
  0
LINE
  5
3C8
330
1F
100
AcDbEntity
  8
0
  6
Continuous
 62
     7
100
AcDbLine
 10
89.55000000000021
 20
89.70935674649496
 30
0.0
 11
89.55000000000015
 21
93.20935674649496
 31
0.0
  0
LINE
  5
3C9
330
1F
100
AcDbEntity
  8
0
  6
Continuous
 62
     7
100
AcDbLine
 10
100.6500000000002
 20
93.20935674649496
 30
0.0
 11
100.6500000000002
 21
89.70935674649496
 31
0.0
  0
LINE
  5
3CA
330
1F
100
AcDbEntity
  8
0
  6
Continuous
 62
     7
100
AcDbLine
 10
89.55000000000021
 20
89.70935674649496
 30
0.0
 11
90.2500000000002
 21
89.70935674649495
 31
0.0
  0
LINE
  5
3CB
330
1F
100
AcDbEntity
  8
0
  6
Continuous
 62
     7
100
AcDbLine
 10
79.65000000000018
 20
93.2093567464946
 30
0.0
 11
79.65000000000018
 21
89.7093567464946
 31
0.0
  0
LINE
  5
3CC
330
1F
100
AcDbEntity
  8
0
  6
Continuous
 62
     7
100
AcDbLine
 10
90.2500000000002
 20
89.70935674649495
 30
0.0
 11
90.2500000000002
 21
93.20935674649495
 31
0.0
  0
LINE
  5
3CD
330
1F
100
AcDbEntity
  8
0
  6
Continuous
 62
     7
100
AcDbLine
 10
101.9500000000002
 20
86.15935674649499
 30
0.0
 11
100.6000000000002
 21
86.15935674649499
 31
0.0
  0
LINE
  5
3CE
330
1F
100
AcDbEntity
  8
0
  6
Continuous
 62
     7
100
AcDbLine
 10
98.60000000000016
 20
86.10935674649497
 30
0.0
 11
92.30000000000021
 21
86.10935674649495
 31
0.0
  0
LINE
  5
3CF
330
1F
100
AcDbEntity
  8
0
  6
Continuous
 62
     7
100
AcDbLine
 10
98.60000000000016
 20
83.85935674649495
 30
0.0
 11
98.60000000000016
 21
85.60935674649497
 31
0.0
  0
LINE
  5
3D0
330
1F
100
AcDbEntity
  8
0
  6
Continuous
 62
     7
100
AcDbLine
 10
98.60000000000016
 20
85.60935674649497
 30
0.0
 11
98.60000000000016
 21
86.10935674649497
 31
0.0
  0
LINE
  5
3D1
330
1F
100
AcDbEntity
  8
0
  6
Continuous
 62
     7
100
AcDbLine
 10
98.60000000000016
 20
86.10935674649497
 30
0.0
 11
98.60000000000016
 21
86.90935674649496
 31
0.0
  0
LINE
  5
3D2
330
1F
100
AcDbEntity
  8
0
  6
Continuous
 62
     7
100
AcDbLine
 10
78.20000000000013
 20
85.65935674649462
 30
0.0
 11
78.20000000000013
 21
84.95935674649485
 31
0.0
  0
LINE
  5
3D3
330
1F
100
AcDbEntity
  8
0
  6
Continuous
 62
     7
100
AcDbLine
 10
76.20000000000016
 20
84.45935674649485
 30
0.0
 11
78.70000000000013
 21
84.45935674649485
 31
0.0
  0
LINE
  5
3D4
330
1F
100
AcDbEntity
  8
0
  6
Continuous
 62
     7
100
AcDbLine
 10
72.70000000000016
 20
84.45935674649485
 30
0.0
 11
76.20000000000016
 21
84.45935674649485
 31
0.0
  0
LINE
  5
3D5
330
1F
100
AcDbEntity
  8
0
  6
Continuous
 62
     7
100
AcDbLine
 10
76.70000000000016
 20
84.95935674649485
 30
0.0
 11
76.70000000000016
 21
85.8593567464946
 31
0.0
  0
LINE
  5
3D6
330
1F
100
AcDbEntity
  8
0
  6
Continuous
 62
     7
100
AcDbLine
 10
76.70000000000016
 20
85.8593567464946
 30
0.0
 11
76.70000000000016
 21
86.90935674649462
 31
0.0
  0
LINE
  5
3D7
330
1F
100
AcDbEntity
  8
0
  6
Continuous
 62
     7
100
AcDbLine
 10
98.10000000000016
 20
84.35935674649495
 30
0.0
 11
92.80000000000015
 21
84.35935674649495
 31
0.0
  0
LINE
  5
3D8
330
1F
100
AcDbEntity
  8
0
  6
Continuous
 62
     7
100
AcDbLine
 10
72.20000000000016
 20
85.8593567464946
 30
0.0
 11
72.20000000000016
 21
84.95935674649485
 31
0.0
  0
LINE
  5
3D9
330
1F
100
AcDbEntity
  8
0
  6
Continuous
 62
     7
100
AcDbLine
 10
72.20000000000016
 20
86.90935674649462
 30
0.0
 11
72.20000000000016
 21
85.8593567464946
 31
0.0
  0
LINE
  5
3DA
330
1F
100
AcDbEntity
  8
0
  6
Continuous
 62
     7
100
AcDbLine
 10
80.95000000000013
 20
86.15935674649462
 30
0.0
 11
78.70000000000013
 21
86.15935674649462
 31
0.0
  0
LINE
  5
3DB
330
1F
100
AcDbEntity
  8
0
  6
Continuous
 62
     7
100
AcDbLine
 10
76.70000000000013
 20
87.40935674649461
 30
0.0
 11
76.70000000000016
 21
86.90935674649462
 31
0.0
  0
LINE
  5
3DC
330
1F
100
AcDbEntity
  8
0
  6
Continuous
 62
     7
100
AcDbLine
 10
78.20000000000013
 20
87.40935674649462
 30
0.0
 11
76.70000000000013
 21
87.40935674649461
 31
0.0
  0
LINE
  5
3DD
330
1F
100
AcDbEntity
  8
0
  6
Continuous
 62
     7
100
AcDbLine
 10
72.20000000000016
 20
86.90935674649462
 30
0.0
 11
72.20000000000016
 21
87.40935674649461
 31
0.0
  0
LINE
  5
3DE
330
1F
100
AcDbEntity
  8
0
  6
Continuous
 62
     7
100
AcDbLine
 10
76.70000000000016
 20
86.90935674649462
 30
0.0
 11
78.70000000000013
 21
86.90935674649462
 31
0.0
  0
LINE
  5
3DF
330
1F
100
AcDbEntity
  8
0
  6
Continuous
 62
     7
100
AcDbLine
 10
78.70000000000013
 20
86.90935674649462
 30
0.0
 11
78.20000000000013
 21
87.40935674649462
 31
0.0
  0
LINE
  5
3E0
330
1F
100
AcDbEntity
  8
0
  6
Continuous
 62
     7
100
AcDbLine
 10
92.30000000000021
 20
85.60935674649495
 30
0.0
 11
98.60000000000016
 21
85.60935674649497
 31
0.0
  0
LINE
  5
3E1
330
1F
100
AcDbEntity
  8
0
  6
Continuous
 62
     7
100
AcDbLine
 10
78.70000000000013
 20
86.90935674649462
 30
0.0
 11
78.70000000000013
 21
87.60935674649463
 31
0.0
  0
LINE
  5
3E2
330
1F
100
AcDbEntity
  8
0
  6
Continuous
 62
     7
100
AcDbLine
 10
72.20000000000016
 20
85.8593567464946
 30
0.0
 11
76.70000000000016
 21
85.8593567464946
 31
0.0
  0
LINE
  5
3E3
330
1F
100
AcDbEntity
  8
0
  6
Continuous
 62
     7
100
AcDbLine
 10
80.35000000000016
 20
89.7093567464946
 30
0.0
 11
80.35000000000016
 21
88.10935674649463
 31
0.0
  0
LINE
  5
3E4
330
1F
100
AcDbEntity
  8
0
  6
Continuous
 62
     7
100
AcDbLine
 10
80.35000000000016
 20
93.2093567464946
 30
0.0
 11
80.35000000000016
 21
89.7093567464946
 31
0.0
  0
LINE
  5
3E5
330
1F
100
AcDbEntity
  8
0
  6
Continuous
 62
     7
100
AcDbLine
 10
80.35000000000016
 20
94.80935674649461
 30
0.0
 11
80.35000000000016
 21
93.2093567464946
 31
0.0
  0
LINE
  5
3E6
330
1F
100
AcDbEntity
  8
0
  6
Continuous
 62
     7
100
AcDbLine
 10
71.80000000000015
 20
98.55935674649461
 30
0.0
 11
77.10000000000014
 21
98.5593567464946
 31
0.0
  0
LINE
  5
3E7
330
1F
100
AcDbEntity
  8
0
  6
Continuous
 62
     7
100
AcDbLine
 10
91.45000000000024
 20
88.10935674649495
 30
0.0
 11
91.20000000000019
 21
88.109356746495
 31
0.0
  0
LINE
  5
3E8
330
1F
100
AcDbEntity
  8
0
  6
Continuous
 62
     7
100
AcDbLine
 10
91.20000000000019
 20
88.109356746495
 30
0.0
 11
89.55000000000021
 21
88.109356746495
 31
0.0
  0
LINE
  5
3E9
330
1F
100
AcDbEntity
  8
0
  6
Continuous
 62
     7
100
AcDbLine
 10
90.70000000000019
 20
87.60935674649498
 30
0.0
 11
90.70000000000019
 21
86.90935674649496
 31
0.0
  0
LINE
  5
3EA
330
1F
100
AcDbEntity
  8
0
  6
Continuous
 62
     7
100
AcDbLine
 10
91.20000000000019
 20
87.40935674649498
 30
0.0
 11
90.70000000000019
 21
86.90935674649496
 31
0.0
  0
LINE
  5
3EB
330
1F
100
AcDbEntity
  8
0
  6
Continuous
 62
     7
100
AcDbLine
 10
89.05000000000015
 20
87.60935674649498
 30
0.0
 11
89.55000000000021
 21
88.109356746495
 31
0.0
  0
LINE
  5
3EC
330
1F
100
AcDbEntity
  8
0
  6
Continuous
 62
     7
100
AcDbLine
 10
90.70000000000019
 20
87.60935674649498
 30
0.0
 11
89.05000000000015
 21
87.60935674649498
 31
0.0
  0
LINE
  5
3ED
330
1F
100
AcDbEntity
  8
0
  6
Continuous
 62
     7
100
AcDbLine
 10
88.45000000000019
 20
86.65935674649499
 30
0.0
 11
88.45000000000019
 21
86.90935674649462
 31
0.0
  0
LINE
  5
3EE
330
1F
100
AcDbEntity
  8
0
  6
Continuous
 62
     7
100
AcDbLine
 10
90.30000000000021
 20
86.15935674649499
 30
0.0
 11
88.95000000000019
 21
86.15935674649499
 31
0.0
  0
LINE
  5
3EF
330
1F
100
AcDbEntity
  8
0
  6
Continuous
 62
     7
100
AcDbLine
 10
91.20000000000019
 20
87.40935674649498
 30
0.0
 11
91.20000000000019
 21
88.109356746495
 31
0.0
  0
LINE
  5
3F0
330
1F
100
AcDbEntity
  8
0
  6
Continuous
 62
     7
100
AcDbLine
 10
81.45000000000013
 20
86.90935674649462
 30
0.0
 11
81.45000000000013
 21
86.65935674649462
 31
0.0
  0
LINE
  5
3F1
330
1F
100
AcDbEntity
  8
0
  6
Continuous
 62
     7
100
AcDbLine
 10
80.35000000000016
 20
89.7093567464946
 30
0.0
 11
79.65000000000018
 21
89.7093567464946
 31
0.0
  0
LINE
  5
3F2
330
1F
100
AcDbEntity
  8
0
  6
Continuous
 62
     7
100
AcDbLine
 10
80.35000000000016
 20
88.10935674649463
 30
0.0
 11
80.85000000000016
 21
87.60935674649463
 31
0.0
  0
LINE
  5
3F3
330
1F
100
AcDbEntity
  8
0
  6
Continuous
 62
     7
100
AcDbLine
 10
90.70000000000019
 20
86.90935674649496
 30
0.0
 11
92.30000000000021
 21
86.90935674649496
 31
0.0
  0
LINE
  5
3F4
330
1F
100
AcDbEntity
  8
0
  6
Continuous
 62
     7
100
AcDbLine
 10
91.20000000000019
 20
87.40935674649498
 30
0.0
 11
92.30000000000021
 21
87.40935674649498
 31
0.0
  0
LINE
  5
3F5
330
1F
100
AcDbEntity
  8
0
  6
Continuous
 62
     7
100
AcDbLine
 10
87.95000000000019
 20
87.40935674649462
 30
0.0
 11
81.95000000000013
 21
87.40935674649462
 31
0.0
  0
LINE
  5
3F6
330
1F
100
AcDbEntity
  8
0
  6
Continuous
 62
     7
100
AcDbLine
 10
92.30000000000021
 20
86.90935674649496
 30
0.0
 11
92.30000000000021
 21
86.10935674649495
 31
0.0
  0
LINE
  5
3F7
330
1F
100
AcDbEntity
  8
0
  6
Continuous
 62
     7
100
AcDbLine
 10
92.30000000000021
 20
86.10935674649495
 30
0.0
 11
92.30000000000021
 21
85.60935674649495
 31
0.0
  0
LINE
  5
3F8
330
1F
100
AcDbEntity
  8
0
  6
Continuous
 62
     7
100
AcDbLine
 10
92.30000000000021
 20
87.40935674649498
 30
0.0
 11
92.30000000000021
 21
87.5593567464949
 31
0.0
  0
LINE
  5
3F9
330
1F
100
AcDbEntity
  8
0
  6
Continuous
 62
     7
100
AcDbLine
 10
92.30000000000021
 20
86.90935674649496
 30
0.0
 11
92.30000000000021
 21
87.40935674649498
 31
0.0
  0
LINE
  5
3FA
330
1F
100
AcDbEntity
  8
0
  6
Continuous
 62
     7
100
AcDbLine
 10
92.30000000000021
 20
85.60935674649495
 30
0.0
 11
92.30000000000015
 21
83.85935674649494
 31
0.0
  0
LINE
  5
3FB
330
1F
100
AcDbEntity
  8
0
  6
Continuous
 62
     7
100
AcDbLine
 10
91.20000000000019
 20
88.109356746495
 30
0.0
 11
90.70000000000019
 21
87.60935674649498
 31
0.0
  0
LINE
  5
3FC
330
1F
100
AcDbEntity
  8
0
  6
Continuous
 62
     7
100
AcDbLine
 10
105.5000000000002
 20
97.95935674649478
 30
0.0
 11
105.5000000000002
 21
96.009356746495
 31
0.0
  0
LINE
  5
3FD
330
1F
100
AcDbEntity
  8
0
  6
Continuous
 62
     7
100
AcDbLine
 10
79.20000000000013
 20
95.30935674649463
 30
0.0
 11
80.85000000000016
 21
95.30935674649463
 31
0.0
  0
LINE
  5
3FE
330
1F
100
AcDbEntity
  8
0
  6
Continuous
 62
     7
100
AcDbLine
 10
78.70000000000013
 20
95.50935674649465
 30
0.0
 11
78.70000000000013
 21
94.80935674649463
 31
0.0
  0
LINE
  5
3FF
330
1F
100
AcDbEntity
  8
0
  6
Continuous
 62
     7
100
AcDbLine
 10
80.85000000000016
 20
95.30935674649463
 30
0.0
 11
80.35000000000016
 21
94.80935674649461
 31
0.0
  0
LINE
  5
400
330
1F
100
AcDbEntity
  8
0
  6
Continuous
 62
     7
100
AcDbLine
 10
89.55000000000021
 20
94.80935674649498
 30
0.0
 11
89.05000000000015
 21
95.309356746495
 31
0.0
  0
LINE
  5
401
330
1F
100
AcDbEntity
  8
0
  6
Continuous
 62
     7
100
AcDbLine
 10
89.55000000000021
 20
94.80935674649498
 30
0.0
 11
91.70000000000019
 21
94.80935674649496
 31
0.0
  0
LINE
  5
402
330
1F
100
AcDbEntity
  8
0
  6
Continuous
 62
     7
100
AcDbLine
 10
78.70000000000013
 20
94.80935674649463
 30
0.0
 11
80.35000000000016
 21
94.80935674649461
 31
0.0
  0
LINE
  5
403
330
1F
100
AcDbEntity
  8
0
  6
Continuous
 62
     7
100
AcDbLine
 10
93.20000000000019
 20
97.95935674649476
 30
0.0
 11
93.20000000000019
 21
97.05935674649494
 31
0.0
  0
LINE
  5
404
330
1F
100
AcDbEntity
  8
0
  6
Continuous
 62
     7
100
AcDbLine
 10
97.70000000000019
 20
96.00935674649502
 30
0.0
 11
97.70000000000019
 21
97.05935674649493
 31
0.0
  0
LINE
  5
405
330
1F
100
AcDbEntity
  8
0
  6
Continuous
 62
     7
100
AcDbLine
 10
97.70000000000019
 20
97.05935674649493
 30
0.0
 11
97.70000000000019
 21
97.95935674649476
 31
0.0
  0
LINE
  5
406
330
1F
100
AcDbEntity
  8
0
  6
Continuous
 62
     7
100
AcDbLine
 10
97.70000000000019
 20
97.05935674649493
 30
0.0
 11
93.20000000000019
 21
97.05935674649494
 31
0.0
  0
LINE
  5
407
330
1F
100
AcDbEntity
  8
0
  6
Continuous
 62
     7
100
AcDbLine
 10
93.20000000000019
 20
96.009356746495
 30
0.0
 11
91.20000000000019
 21
96.00935674649502
 31
0.0
  0
LINE
  5
408
330
1F
100
AcDbEntity
  8
0
  6
Continuous
 62
     7
100
AcDbLine
 10
93.20000000000019
 20
97.05935674649494
 30
0.0
 11
93.20000000000019
 21
96.009356746495
 31
0.0
  0
LINE
  5
409
330
1F
100
AcDbEntity
  8
0
  6
Continuous
 62
     7
100
AcDbLine
 10
102.4500000000001
 20
96.009356746495
 30
0.0
 11
102.4500000000001
 21
96.25935674649497
 31
0.0
  0
LINE
  5
40A
330
1F
100
AcDbEntity
  8
0
  6
Continuous
 62
     7
100
AcDbLine
 10
97.70000000000019
 20
96.00935674649502
 30
0.0
 11
97.70000000000019
 21
95.50935674649502
 31
0.0
  0
LINE
  5
40B
330
1F
100
AcDbEntity
  8
0
  6
Continuous
 62
     7
100
AcDbLine
 10
91.70000000000019
 20
94.80935674649496
 30
0.0
 11
91.70000000000019
 21
95.509356746495
 31
0.0
  0
LINE
  5
40C
330
1F
100
AcDbEntity
  8
0
  6
Continuous
 62
     7
100
AcDbLine
 10
99.20000000000019
 20
95.509356746495
 30
0.0
 11
99.20000000000019
 21
94.80935674649496
 31
0.0
  0
LINE
  5
40D
330
1F
100
AcDbEntity
  8
0
  6
Continuous
 62
     7
100
AcDbLine
 10
99.70000000000019
 20
95.30935674649501
 30
0.0
 11
99.70000000000019
 21
96.00935674649502
 31
0.0
  0
LINE
  5
40E
330
1F
100
AcDbEntity
  8
0
  6
Continuous
 62
     7
100
AcDbLine
 10
101.8500000000002
 20
95.30935674649501
 30
0.0
 11
101.3500000000002
 21
94.809356746495
 31
0.0
  0
LINE
  5
40F
330
1F
100
AcDbEntity
  8
0
  6
Continuous
 62
     7
100
AcDbLine
 10
99.20000000000019
 20
94.80935674649496
 30
0.0
 11
98.95000000000024
 21
94.80935674649496
 31
0.0
  0
LINE
  5
410
330
1F
100
AcDbEntity
  8
0
  6
Continuous
 62
     7
100
AcDbLine
 10
91.95000000000024
 20
94.80935674649496
 30
0.0
 11
91.70000000000019
 21
94.80935674649496
 31
0.0
  0
LINE
  5
411
330
1F
100
AcDbEntity
  8
0
  6
Continuous
 62
     7
100
AcDbLine
 10
99.20000000000019
 20
94.80935674649496
 30
0.0
 11
101.3500000000002
 21
94.809356746495
 31
0.0
  0
LINE
  5
412
330
1F
100
AcDbEntity
  8
0
  6
Continuous
 62
     7
100
AcDbLine
 10
99.20000000000019
 20
94.80935674649496
 30
0.0
 11
99.70000000000019
 21
95.30935674649501
 31
0.0
  0
LINE
  5
413
330
1F
100
AcDbEntity
  8
0
  6
Continuous
 62
     7
100
AcDbLine
 10
99.70000000000019
 20
96.00935674649502
 30
0.0
 11
97.70000000000019
 21
96.00935674649502
 31
0.0
  0
LINE
  5
414
330
1F
100
AcDbEntity
  8
0
  6
Continuous
 62
     7
100
AcDbLine
 10
97.55000000000021
 20
94.80935674649496
 30
0.0
 11
93.35000000000022
 21
94.80935674649496
 31
0.0
  0
LINE
  5
415
330
1F
100
AcDbEntity
  8
0
  6
Continuous
 62
     7
100
AcDbLine
 10
81.45000000000013
 20
96.00935674649465
 30
0.0
 11
81.45000000000013
 21
96.25935674649465
 31
0.0
  0
LINE
  5
416
330
1F
100
AcDbEntity
  8
0
  6
Continuous
 62
     7
100
AcDbLine
 10
91.20000000000019
 20
96.00935674649502
 30
0.0
 11
91.20000000000019
 21
95.309356746495
 31
0.0
  0
LINE
  5
417
330
1F
100
AcDbEntity
  8
0
  6
Continuous
 62
     7
100
AcDbLine
 10
79.20000000000013
 20
95.30935674649463
 30
0.0
 11
79.20000000000013
 21
96.00935674649465
 31
0.0
  0
LINE
  5
418
330
1F
100
AcDbEntity
  8
0
  6
Continuous
 62
     7
100
AcDbLine
 10
89.05000000000015
 20
95.309356746495
 30
0.0
 11
91.20000000000019
 21
95.309356746495
 31
0.0
  0
LINE
  5
419
330
1F
100
AcDbEntity
  8
0
  6
Continuous
 62
     7
100
AcDbLine
 10
88.45000000000019
 20
96.00935674649465
 30
0.0
 11
88.45000000000019
 21
96.25935674649497
 31
0.0
  0
LINE
  5
41A
330
1F
100
AcDbEntity
  8
0
  6
Continuous
 62
     7
100
AcDbLine
 10
78.70000000000013
 20
95.50935674649465
 30
0.0
 11
77.60000000000016
 21
95.50935674649463
 31
0.0
  0
LINE
  5
41B
330
1F
100
AcDbEntity
  8
0
  6
Continuous
 62
     7
100
AcDbLine
 10
99.70000000000019
 20
95.30935674649501
 30
0.0
 11
101.8500000000002
 21
95.30935674649501
 31
0.0
  0
LINE
  5
41C
330
1F
100
AcDbEntity
  8
0
  6
Continuous
 62
     7
100
AcDbLine
 10
91.70000000000019
 20
95.509356746495
 30
0.0
 11
93.20000000000019
 21
95.50935674649502
 31
0.0
  0
LINE
  5
41D
330
1F
100
AcDbEntity
  8
0
  6
Continuous
 62
     7
100
AcDbLine
 10
102.9500000000001
 20
95.509356746495
 30
0.0
 11
105.0000000000002
 21
95.509356746495
 31
0.0
  0
LINE
  5
41E
330
1F
100
AcDbEntity
  8
0
  6
Continuous
 62
     7
100
AcDbLine
 10
97.70000000000019
 20
95.50935674649502
 30
0.0
 11
99.20000000000019
 21
95.509356746495
 31
0.0
  0
LINE
  5
41F
330
1F
100
AcDbEntity
  8
0
  6
Continuous
 62
     7
100
AcDbLine
 10
81.95000000000013
 20
95.50935674649465
 30
0.0
 11
87.95000000000019
 21
95.50935674649465
 31
0.0
  0
LINE
  5
420
330
1F
100
AcDbEntity
  8
0
  6
Continuous
 62
     7
100
AcDbLine
 10
93.20000000000019
 20
95.50935674649502
 30
0.0
 11
93.20000000000019
 21
96.009356746495
 31
0.0
  0
LINE
  5
421
330
1F
100
AcDbEntity
  8
0
  6
Continuous
 62
     7
100
AcDbLine
 10
77.60000000000016
 20
95.50935674649463
 30
0.0
 11
77.60000000000014
 21
96.00935674649465
 31
0.0
  0
LINE
  5
422
330
1F
100
AcDbEntity
  8
0
  6
Continuous
 62
     7
100
AcDbLine
 10
79.20000000000013
 20
96.00935674649465
 30
0.0
 11
77.60000000000014
 21
96.00935674649465
 31
0.0
  0
LINE
  5
423
330
1F
100
AcDbEntity
  8
0
  6
Continuous
 62
     7
100
AcDbLine
 10
91.20000000000019
 20
96.00935674649502
 30
0.0
 11
91.70000000000019
 21
95.509356746495
 31
0.0
  0
LINE
  5
424
330
1F
100
AcDbEntity
  8
0
  6
Continuous
 62
     7
100
AcDbLine
 10
99.20000000000019
 20
95.509356746495
 30
0.0
 11
99.70000000000019
 21
96.00935674649502
 31
0.0
  0
LINE
  5
425
330
1F
100
AcDbEntity
  8
0
  6
Continuous
 62
     7
100
AcDbLine
 10
91.20000000000019
 20
98.45935674649476
 30
0.0
 11
87.95000000000019
 21
98.45935674649476
 31
0.0
  0
LINE
  5
426
330
1F
100
AcDbEntity
  8
0
  6
Continuous
 62
     7
100
AcDbLine
 10
88.95000000000019
 20
96.75935674649497
 30
0.0
 11
91.20000000000019
 21
96.75935674649497
 31
0.0
  0
LINE
  5
427
330
1F
100
AcDbEntity
  8
0
  6
Continuous
 62
     7
100
AcDbLine
 10
77.60000000000014
 20
96.80935674649459
 30
0.0
 11
77.60000000000014
 21
97.30935674649459
 31
0.0
  0
LINE
  5
428
330
1F
100
AcDbEntity
  8
0
  6
Continuous
 62
     7
100
AcDbLine
 10
77.60000000000014
 20
97.30935674649459
 30
0.0
 11
71.30000000000013
 21
97.30935674649459
 31
0.0
  0
LINE
  5
429
330
1F
100
AcDbEntity
  8
0
  6
Continuous
 62
     7
100
AcDbLine
 10
77.60000000000014
 20
96.00935674649465
 30
0.0
 11
77.60000000000014
 21
96.80935674649459
 31
0.0
  0
LINE
  5
42A
330
1F
100
AcDbEntity
  8
0
  6
Continuous
 62
     7
100
AcDbLine
 10
77.60000000000014
 20
95.35935674649468
 30
0.0
 11
77.60000000000016
 21
95.50935674649463
 31
0.0
  0
LINE
  5
42B
330
1F
100
AcDbEntity
  8
0
  6
Continuous
 62
     7
100
AcDbLine
 10
78.45000000000013
 20
94.80935674649459
 30
0.0
 11
78.70000000000013
 21
94.80935674649463
 31
0.0
  0
LINE
  5
42C
330
1F
100
AcDbEntity
  8
0
  6
Continuous
 62
     7
100
AcDbLine
 10
78.70000000000013
 20
94.80935674649463
 30
0.0
 11
79.20000000000013
 21
95.30935674649463
 31
0.0
  0
LINE
  5
42D
330
1F
100
AcDbEntity
  8
0
  6
Continuous
 62
     7
100
AcDbLine
 10
79.60000000000016
 20
96.75935674649465
 30
0.0
 11
80.95000000000013
 21
96.75935674649465
 31
0.0
  0
LINE
  5
42E
330
1F
100
AcDbEntity
  8
0
  6
Continuous
 62
     7
100
AcDbLine
 10
99.70000000000019
 20
96.75935674649497
 30
0.0
 11
101.9500000000001
 21
96.75935674649497
 31
0.0
  0
LINE
  5
42F
330
1F
100
AcDbEntity
  8
0
  6
Continuous
 62
     7
100
AcDbLine
 10
71.30000000000015
 20
96.80935674649459
 30
0.0
 11
77.60000000000014
 21
96.80935674649459
 31
0.0
  0
LINE
  5
430
330
1F
100
AcDbEntity
  8
0
  6
Continuous
 62
     7
100
AcDbLine
 10
78.70000000000013
 20
95.50935674649465
 30
0.0
 11
79.20000000000013
 21
96.00935674649465
 31
0.0
  0
LINE
  5
431
330
1F
100
AcDbEntity
  8
0
  6
Continuous
 62
     7
100
AcDbLine
 10
91.70000000000019
 20
94.80935674649496
 30
0.0
 11
91.20000000000019
 21
95.309356746495
 31
0.0
  0
LINE
  5
432
330
1F
100
AcDbEntity
  8
0
  6
Continuous
 62
     7
100
AcDbLine
 10
103.7500000000002
 20
108.4593567464948
 30
0.0
 11
95.55000000000021
 21
108.4593567464948
 31
0.0
  0
LINE
  5
433
330
1F
100
AcDbEntity
  8
0
  6
Continuous
 62
     7
100
AcDbLine
 10
89.05000000000021
 20
108.4593567464948
 30
0.0
 11
80.85000000000016
 21
108.4593567464948
 31
0.0
  0
LINE
  5
434
330
1F
100
AcDbEntity
  8
0
  6
Continuous
 62
     7
100
AcDbLine
 10
75.5500000000001
 20
104.4593567464948
 30
0.0
 11
75.5500000000001
 21
106.4593567464948
 31
0.0
  0
LINE
  5
435
330
1F
100
AcDbEntity
  8
0
  6
Continuous
 62
     7
100
AcDbLine
 10
79.65000000000012
 20
106.4593567464948
 30
0.0
 11
79.65000000000018
 21
104.4593567464948
 31
0.0
  0
LINE
  5
436
330
1F
100
AcDbEntity
  8
0
  6
Continuous
 62
     7
100
AcDbLine
 10
80.85000000000016
 20
108.4593567464948
 30
0.0
 11
80.85000000000016
 21
106.4593567464948
 31
0.0
  0
LINE
  5
437
330
1F
100
AcDbEntity
  8
0
  6
Continuous
 62
     7
100
AcDbLine
 10
74.35000000000016
 20
106.4593567464949
 30
0.0
 11
74.35000000000016
 21
108.4593567464948
 31
0.0
  0
LINE
  5
438
330
1F
100
AcDbEntity
  8
0
  6
Continuous
 62
     7
100
AcDbLine
 10
89.05000000000021
 20
106.4593567464949
 30
0.0
 11
89.05000000000021
 21
108.4593567464948
 31
0.0
  0
LINE
  5
439
330
1F
100
AcDbEntity
  8
0
  6
Continuous
 62
     7
100
AcDbLine
 10
90.25000000000014
 20
104.4593567464948
 30
0.0
 11
90.25000000000014
 21
106.4593567464948
 31
0.0
  0
LINE
  5
43A
330
1F
100
AcDbEntity
  8
0
  6
Continuous
 62
     7
100
AcDbLine
 10
95.55000000000021
 20
108.4593567464948
 30
0.0
 11
95.55000000000021
 21
106.4593567464949
 31
0.0
  0
LINE
  5
43B
330
1F
100
AcDbEntity
  8
0
  6
Continuous
 62
     7
100
AcDbLine
 10
103.7500000000002
 20
106.4593567464949
 30
0.0
 11
103.7500000000002
 21
108.4593567464948
 31
0.0
  0
LINE
  5
43C
330
1F
100
AcDbEntity
  8
0
  6
Continuous
 62
     7
100
AcDbLine
 10
79.65000000000012
 20
106.4593567464948
 30
0.0
 11
80.85000000000016
 21
106.4593567464948
 31
0.0
  0
LINE
  5
43D
330
1F
100
AcDbEntity
  8
0
  6
Continuous
 62
     7
100
AcDbLine
 10
89.05000000000021
 20
106.4593567464949
 30
0.0
 11
90.25000000000014
 21
106.4593567464948
 31
0.0
  0
LINE
  5
43E
330
1F
100
AcDbEntity
  8
0
  6
Continuous
 62
     7
100
AcDbLine
 10
104.9500000000002
 20
104.4593567464948
 30
0.0
 11
104.9500000000002
 21
106.4593567464949
 31
0.0
  0
LINE
  5
43F
330
1F
100
AcDbEntity
  8
0
  6
Continuous
 62
     7
100
AcDbLine
 10
94.35000000000022
 20
106.4593567464948
 30
0.0
 11
94.35000000000022
 21
104.4593567464948
 31
0.0
  0
LINE
  5
440
330
1F
100
AcDbEntity
  8
0
  6
Continuous
 62
     7
100
AcDbLine
 10
94.35000000000022
 20
106.4593567464948
 30
0.0
 11
95.55000000000021
 21
106.4593567464949
 31
0.0
  0
LINE
  5
441
330
1F
100
AcDbEntity
  8
0
  6
Continuous
 62
     7
100
AcDbLine
 10
103.7500000000002
 20
106.4593567464949
 30
0.0
 11
104.9500000000002
 21
106.4593567464949
 31
0.0
  0
LINE
  5
442
330
1F
100
AcDbEntity
  8
0
  6
Continuous
 62
     7
100
AcDbLine
 10
107.9000000000002
 20
102.5954196310713
 30
0.0
 11
107.9000000000002
 21
101.9799158835421
 31
0.0
  0
LINE
  5
443
330
1F
100
AcDbEntity
  8
0
  6
Continuous
 62
     7
100
AcDbLine
 10
107.9000000000002
 20
100.9387976094475
 30
0.0
 11
107.9000000000002
 21
100.3232938619183
 31
0.0
  0
LINE
  5
444
330
1F
100
AcDbEntity
  8
0
  6
Continuous
 62
     7
100
AcDbLine
 10
107.7432879227878
 20
101.1340568108715
 30
0.0
 11
107.1567120772125
 21
101.2640975450708
 31
0.0
  0
LINE
  5
445
330
1F
100
AcDbEntity
  8
0
  6
Continuous
 62
     7
100
AcDbLine
 10
107.1567120772126
 20
101.6546159479188
 30
0.0
 11
107.7432879227878
 21
101.7846566821181
 31
0.0
  0
LINE
  5
446
330
1F
100
AcDbEntity
  8
0
  6
Continuous
 62
     7
100
AcDbLine
 10
107.2845236523483
 20
102.6223554121715
 30
0.0
 11
107.615476347652
 21
102.7766811884787
 31
0.0
  0
LINE
  5
447
330
1F
100
AcDbEntity
  8
0
  6
Continuous
 62
     7
100
AcDbLine
 10
107.615476347652
 20
100.142032304511
 30
0.0
 11
107.2845236523483
 21
100.2963580808181
 31
0.0
  0
LINE
  5
448
330
1F
100
AcDbEntity
  8
0
  6
Continuous
 62
     7
100
AcDbLine
 10
107.0000000000002
 20
106.4593567464948
 30
0.0
 11
104.9500000000002
 21
106.4593567464949
 31
0.0
  0
LINE
  5
449
330
1F
100
AcDbEntity
  8
0
  6
Continuous
 62
     7
100
AcDbLine
 10
107.0000000000002
 20
104.4593567464948
 30
0.0
 11
107.0000000000002
 21
106.4593567464948
 31
0.0
  0
LINE
  5
44A
330
1F
100
AcDbEntity
  8
0
  6
Continuous
 62
     7
100
AcDbLine
 10
105.0000000000002
 20
98.45935674649476
 30
0.0
 11
99.70000000000019
 21
98.45935674649476
 31
0.0
  0
LINE
  5
44B
330
1F
100
AcDbEntity
  8
0
  6
Continuous
 62
     7
100
AcDbLine
 10
107.0000000000002
 20
104.4593567464948
 30
0.0
 11
104.9500000000002
 21
104.4593567464948
 31
0.0
  0
LINE
  5
44C
330
1F
100
AcDbEntity
  8
0
  6
Continuous
 62
     7
100
AcDbLine
 10
107.0000000000002
 20
104.4593567464948
 30
0.0
 11
107.0000000000001
 21
102.8036169695788
 31
0.0
  0
LINE
  5
44D
330
1F
100
AcDbEntity
  8
0
  6
Continuous
 62
     7
100
AcDbLine
 10
97.20000000000019
 20
98.45935674649476
 30
0.0
 11
93.70000000000019
 21
98.45935674649476
 31
0.0
  0
LINE
  5
44E
330
1F
100
AcDbEntity
  8
0
  6
Continuous
 62
     7
100
AcDbLine
 10
99.70000000000019
 20
98.45935674649476
 30
0.0
 11
97.20000000000019
 21
98.45935674649476
 31
0.0
  0
LINE
  5
44F
330
1F
100
AcDbEntity
  8
0
  6
Continuous
 62
     7
100
AcDbLine
 10
99.20000000000019
 20
97.95935674649476
 30
0.0
 11
99.20000000000019
 21
97.25935674649497
 31
0.0
  0
LINE
  5
450
330
1F
100
AcDbEntity
  8
0
  6
Continuous
 62
     7
100
AcDbLine
 10
94.35000000000022
 20
104.4593567464948
 30
0.0
 11
90.25000000000014
 21
104.4593567464948
 31
0.0
  0
LINE
  5
451
330
1F
100
AcDbEntity
  8
0
  6
Continuous
 62
     7
100
AcDbLine
 10
84.95000000000019
 20
101.4593567464948
 30
0.0
 11
84.95000000000019
 21
104.5093567464948
 31
0.0
  0
LINE
  5
452
330
1F
100
AcDbEntity
  8
0
  6
Continuous
 62
     7
100
AcDbLine
 10
93.70000000000019
 20
98.45935674649476
 30
0.0
 11
91.20000000000019
 21
98.45935674649476
 31
0.0
  0
LINE
  5
453
330
1F
100
AcDbEntity
  8
0
  6
Continuous
 62
     7
100
AcDbLine
 10
94.35000000000022
 20
106.4593567464948
 30
0.0
 11
90.25000000000014
 21
106.4593567464948
 31
0.0
  0
LINE
  5
454
330
1F
100
AcDbEntity
  8
0
  6
Continuous
 62
     7
100
AcDbLine
 10
74.35000000000016
 20
106.4593567464949
 30
0.0
 11
75.5500000000001
 21
106.4593567464948
 31
0.0
  0
LINE
  5
455
330
1F
100
AcDbEntity
  8
0
  6
Continuous
 62
     7
100
AcDbLine
 10
91.70000000000019
 20
97.25935674649497
 30
0.0
 11
91.70000000000019
 21
97.95935674649476
 31
0.0
  0
LINE
  5
456
330
1F
100
AcDbEntity
  8
0
  6
Continuous
 62
     7
100
AcDbLine
 10
84.45000000000019
 20
105.0093567464948
 30
0.0
 11
81.65000000000018
 21
105.0093567464948
 31
0.0
  0
LINE
  5
457
330
1F
100
AcDbEntity
  8
0
  6
Continuous
 62
     7
100
AcDbLine
 10
81.15000000000018
 20
103.4593567464948
 30
0.0
 11
81.15000000000018
 21
104.5093567464948
 31
0.0
  0
LINE
  5
458
330
1F
100
AcDbEntity
  8
0
  6
Continuous
 62
     7
100
AcDbLine
 10
80.65000000000018
 20
102.9593567464948
 30
0.0
 11
79.60000000000016
 21
102.9593567464948
 31
0.0
  0
LINE
  5
459
330
1F
100
AcDbEntity
  8
0
  6
Continuous
 62
     7
100
AcDbLine
 10
77.10000000000016
 20
102.9593567464948
 30
0.0
 11
74.5500000000001
 21
102.9593567464948
 31
0.0
  0
LINE
  5
45A
330
1F
100
AcDbEntity
  8
0
  6
Continuous
 62
     7
100
AcDbLine
 10
79.65000000000018
 20
104.4593567464948
 30
0.0
 11
75.5500000000001
 21
104.4593567464948
 31
0.0
  0
LINE
  5
45B
330
1F
100
AcDbEntity
  8
0
  6
Continuous
 62
     7
100
AcDbLine
 10
79.60000000000016
 20
102.9593567464948
 30
0.0
 11
77.10000000000016
 21
102.9593567464948
 31
0.0
  0
LINE
  5
45C
330
1F
100
AcDbEntity
  8
0
  6
Continuous
 62
     7
100
AcDbLine
 10
77.60000000000014
 20
97.30935674649459
 30
0.0
 11
77.60000000000014
 21
99.0593567464946
 31
0.0
  0
LINE
  5
45D
330
1F
100
AcDbEntity
  8
0
  6
Continuous
 62
     7
100
AcDbLine
 10
77.60000000000014
 20
99.0593567464946
 30
0.0
 11
77.60000000000016
 21
102.4593567464948
 31
0.0
  0
LINE
  5
45E
330
1F
100
AcDbEntity
  8
0
  6
Continuous
 62
     7
100
AcDbLine
 10
75.5500000000001
 20
106.4593567464948
 30
0.0
 11
79.65000000000012
 21
106.4593567464948
 31
0.0
  0
LINE
  5
45F
330
1F
100
AcDbEntity
  8
0
  6
Continuous
 62
     7
100
AcDbLine
 10
74.0500000000001
 20
103.4593567464948
 30
0.0
 11
74.0500000000001
 21
104.4593567464949
 31
0.0
  0
LINE
  5
460
330
1F
100
AcDbEntity
  8
0
  6
Continuous
 62
     7
100
AcDbLine
 10
74.35000000000016
 20
108.4593567464948
 30
0.0
 11
66.15000000000012
 21
108.4593567464948
 31
0.0
  0
LINE
  5
461
330
1F
100
AcDbEntity
  8
0
  6
Continuous
 62
     7
100
AcDbLine
 10
66.15000000000012
 20
108.4593567464948
 30
0.0
 11
66.15000000000012
 21
106.4593567464949
 31
0.0
  0
LINE
  5
462
330
1F
100
AcDbEntity
  8
0
  6
Continuous
 62
     7
100
AcDbLine
 10
69.30000000000015
 20
104.9593567464949
 30
0.0
 11
66.95000000000013
 21
104.9593567464949
 31
0.0
  0
LINE
  5
463
330
1F
100
AcDbEntity
  8
0
  6
Continuous
 62
     7
100
AcDbLine
 10
73.5500000000001
 20
104.9593567464949
 30
0.0
 11
71.80000000000015
 21
104.9593567464949
 31
0.0
  0
LINE
  5
464
330
1F
100
AcDbEntity
  8
0
  6
Continuous
 62
     7
100
AcDbLine
 10
71.80000000000015
 20
104.9593567464949
 30
0.0
 11
69.30000000000015
 21
104.9593567464949
 31
0.0
  0
LINE
  5
465
330
1F
100
AcDbEntity
  8
0
  6
Continuous
 62
     7
100
AcDbLine
 10
69.80000000000015
 20
104.4593567464949
 30
0.0
 11
69.80000000000015
 21
97.25935674649463
 31
0.0
  0
LINE
  5
466
330
1F
100
AcDbEntity
  8
0
  6
Continuous
 62
     7
100
AcDbLine
 10
71.30000000000015
 20
99.05935674649461
 30
0.0
 11
71.30000000000013
 21
97.30935674649459
 31
0.0
  0
LINE
  5
467
330
1F
100
AcDbEntity
  8
0
  6
Continuous
 62
     7
100
AcDbLine
 10
71.30000000000015
 20
104.4593567464949
 30
0.0
 11
71.30000000000015
 21
99.05935674649461
 31
0.0
  0
LINE
  5
468
330
1F
100
AcDbEntity
  8
0
  6
Continuous
 62
     7
100
AcDbLine
 10
66.45000000000013
 20
104.4593567464949
 30
0.0
 11
66.45000000000013
 21
103.4593567464948
 31
0.0
  0
LINE
  5
469
330
1F
100
AcDbEntity
  8
0
  6
Continuous
 62
     7
100
AcDbLine
 10
71.30000000000015
 20
96.80935674649459
 30
0.0
 11
71.30000000000015
 21
96.00935674649465
 31
0.0
  0
LINE
  5
46A
330
1F
100
AcDbEntity
  8
0
  6
Continuous
 62
     7
100
AcDbLine
 10
71.30000000000013
 20
97.30935674649459
 30
0.0
 11
71.30000000000015
 21
96.80935674649459
 31
0.0
  0
LINE
  5
46B
330
1F
100
AcDbEntity
  8
0
  6
Continuous
 62
     7
100
AcDbLine
 10
71.30000000000015
 20
96.00935674649465
 30
0.0
 11
69.70000000000016
 21
96.00935674649465
 31
0.0
  0
LINE
  5
46C
330
1F
100
AcDbEntity
  8
0
  6
Continuous
 62
     7
100
AcDbLine
 10
71.30000000000015
 20
95.35935674649468
 30
0.0
 11
71.30000000000015
 21
95.50935674649463
 31
0.0
  0
LINE
  5
46D
330
1F
100
AcDbEntity
  8
0
  6
Continuous
 62
     7
100
AcDbLine
 10
71.30000000000015
 20
95.50935674649463
 30
0.0
 11
70.20000000000016
 21
95.50935674649463
 31
0.0
  0
LINE
  5
46E
330
1F
100
AcDbEntity
  8
0
  6
Continuous
 62
     7
100
AcDbLine
 10
71.30000000000015
 20
95.50935674649463
 30
0.0
 11
71.30000000000015
 21
96.00935674649465
 31
0.0
  0
LINE
  5
46F
330
1F
100
AcDbEntity
  8
0
  6
Continuous
 62
     7
100
AcDbLine
 10
65.95000000000013
 20
102.9593567464948
 30
0.0
 11
65.90000000000015
 21
102.9593567464948
 31
0.0
  0
LINE
  5
470
330
1F
100
AcDbEntity
  8
0
  6
Continuous
 62
     7
100
AcDbLine
 10
67.15000000000012
 20
76.45935674649482
 30
0.0
 11
67.15000000000012
 21
74.45935674649482
 31
0.0
  0
LINE
  5
471
330
1F
100
AcDbEntity
  8
0
  6
Continuous
 62
     7
100
AcDbLine
 10
70.20000000000016
 20
94.80935674649461
 30
0.0
 11
69.70000000000016
 21
95.30935674649463
 31
0.0
  0
LINE
  5
472
330
1F
100
AcDbEntity
  8
0
  6
Continuous
 62
     7
100
AcDbLine
 10
68.55000000000015
 20
94.80935674649461
 30
0.0
 11
68.05000000000015
 21
95.30935674649463
 31
0.0
  0
LINE
  5
473
330
1F
100
AcDbEntity
  8
0
  6
Continuous
 62
     7
100
AcDbLine
 10
70.20000000000016
 20
94.80935674649461
 30
0.0
 11
70.45000000000013
 21
94.80935674649459
 31
0.0
  0
LINE
  5
474
330
1F
100
AcDbEntity
  8
0
  6
Continuous
 62
     7
100
AcDbLine
 10
70.20000000000016
 20
94.80935674649461
 30
0.0
 11
70.20000000000016
 21
95.50935674649463
 31
0.0
  0
LINE
  5
475
330
1F
100
AcDbEntity
  8
0
  6
Continuous
 62
     7
100
AcDbLine
 10
62.90000000000012
 20
99.45935674649482
 30
0.0
 11
62.90000000000012
 21
83.45935674649482
 31
0.0
  0
LINE
  5
476
330
1F
100
AcDbEntity
  8
0
  6
Continuous
 62
     7
100
AcDbLine
 10
64.40000000000012
 20
96.00935674649466
 30
0.0
 11
64.40000000000015
 21
86.90935674649461
 31
0.0
  0
LINE
  5
477
330
1F
100
AcDbEntity
  8
0
  6
Continuous
 62
     7
100
AcDbLine
 10
68.55000000000015
 20
94.80935674649461
 30
0.0
 11
70.20000000000016
 21
94.80935674649461
 31
0.0
  0
LINE
  5
478
330
1F
100
AcDbEntity
  8
0
  6
Continuous
 62
     7
100
AcDbLine
 10
64.90000000000015
 20
95.50935674649463
 30
0.0
 11
66.95000000000016
 21
95.50935674649463
 31
0.0
  0
LINE
  5
479
330
1F
100
AcDbEntity
  8
0
  6
Continuous
 62
     7
100
AcDbLine
 10
69.70000000000016
 20
96.00935674649465
 30
0.0
 11
69.70000000000016
 21
95.30935674649463
 31
0.0
  0
LINE
  5
47A
330
1F
100
AcDbEntity
  8
0
  6
Continuous
 62
     7
100
AcDbLine
 10
69.70000000000016
 20
96.00935674649465
 30
0.0
 11
70.20000000000016
 21
95.50935674649463
 31
0.0
  0
LINE
  5
47B
330
1F
100
AcDbEntity
  8
0
  6
Continuous
 62
     7
100
AcDbLine
 10
68.55000000000015
 20
93.2093567464946
 30
0.0
 11
68.55000000000015
 21
94.80935674649461
 31
0.0
  0
LINE
  5
47C
330
1F
100
AcDbEntity
  8
0
  6
Continuous
 62
     7
100
AcDbLine
 10
68.05000000000015
 20
87.60935674649461
 30
0.0
 11
68.05000000000015
 21
95.30935674649463
 31
0.0
  0
LINE
  5
47D
330
1F
100
AcDbEntity
  8
0
  6
Continuous
 62
     7
100
AcDbLine
 10
67.45000000000016
 20
96.00935674649463
 30
0.0
 11
67.45000000000016
 21
96.25935674649463
 31
0.0
  0
LINE
  5
47E
330
1F
100
AcDbEntity
  8
0
  6
Continuous
 62
     7
100
AcDbLine
 10
68.05000000000015
 20
95.30935674649463
 30
0.0
 11
69.70000000000016
 21
95.30935674649463
 31
0.0
  0
LINE
  5
47F
330
1F
100
AcDbEntity
  8
0
  6
Continuous
 62
     7
100
AcDbLine
 10
67.95000000000016
 20
96.75935674649463
 30
0.0
 11
69.30000000000015
 21
96.75935674649463
 31
0.0
  0
LINE
  5
480
330
1F
100
AcDbEntity
  8
0
  6
Continuous
 62
     7
100
AcDbLine
 10
64.40000000000015
 20
98.45935674649476
 30
0.0
 11
64.40000000000012
 21
96.00935674649466
 31
0.0
  0
LINE
  5
481
330
1F
100
AcDbEntity
  8
0
  6
Continuous
 62
     7
100
AcDbLine
 10
62.90000000000012
 20
78.45935674649482
 30
0.0
 11
64.95000000000016
 21
78.4593567464948
 31
0.0
  0
LINE
  5
482
330
1F
100
AcDbEntity
  8
0
  6
Continuous
 62
     7
100
AcDbLine
 10
62.99423631397175
 20
79.45935674649482
 30
0.0
 11
62.90000000000012
 21
79.45935674649482
 31
0.0
  0
LINE
  5
483
330
1F
100
AcDbEntity
  8
0
  6
Continuous
 62
     7
100
AcDbLine
 10
62.90000000000012
 20
83.45935674649482
 30
0.0
 11
62.99423631397175
 21
83.45935674649482
 31
0.0
  0
LINE
  5
484
330
1F
100
AcDbEntity
  8
0
  6
Continuous
 62
     7
100
AcDbLine
 10
62.90000000000012
 20
76.45935674649476
 30
0.0
 11
64.95000000000016
 21
76.45935674649469
 31
0.0
  0
LINE
  5
485
330
1F
100
AcDbEntity
  8
0
  6
Continuous
 62
     7
100
AcDbLine
 10
63.31692500357659
 20
82.73746441038381
 30
0.0
 11
63.90000000000012
 21
83.00935674649483
 31
0.0
  0
LINE
  5
486
330
1F
100
AcDbEntity
  8
0
  6
Continuous
 62
     7
100
AcDbLine
 10
64.90000000000015
 20
84.45935674649485
 30
0.0
 11
70.20000000000016
 21
84.45935674649485
 31
0.0
  0
LINE
  5
487
330
1F
100
AcDbEntity
  8
0
  6
Continuous
 62
     7
100
AcDbLine
 10
62.90000000000012
 20
82.93307400925184
 30
0.0
 11
62.90000000000012
 21
83.08563948373788
 31
0.0
  0
LINE
  5
488
330
1F
100
AcDbEntity
  8
0
  6
Continuous
 62
     7
100
AcDbLine
 10
62.90000000000012
 20
83.08563948373788
 30
0.0
 11
62.90000000000012
 21
83.45935674649482
 31
0.0
  0
LINE
  5
489
330
1F
100
AcDbEntity
  8
0
  6
Continuous
 62
     7
100
AcDbLine
 10
62.90000000000012
 20
79.83307400925176
 30
0.0
 11
62.90000000000012
 21
79.9856394837378
 31
0.0
  0
LINE
  5
48A
330
1F
100
AcDbEntity
  8
0
  6
Continuous
 62
     7
100
AcDbLine
 10
62.90000000000012
 20
79.9856394837378
 30
0.0
 11
62.90000000000012
 21
82.93307400925184
 31
0.0
  0
LINE
  5
48B
330
1F
100
AcDbEntity
  8
0
  6
Continuous
 62
     7
100
AcDbLine
 10
63.06145598562981
 20
83.28531948734658
 30
0.0
 11
63.0371181354349
 21
83.267396383603
 31
0.0
  0
LINE
  5
48C
330
1F
100
AcDbEntity
  8
0
  6
Continuous
 62
     7
100
AcDbLine
 10
66.95000000000016
 20
87.40935674649461
 30
0.0
 11
64.90000000000015
 21
87.40935674649461
 31
0.0
  0
LINE
  5
48D
330
1F
100
AcDbEntity
  8
0
  6
Continuous
 62
     7
100
AcDbLine
 10
62.90000000000012
 20
78.45935674649482
 30
0.0
 11
62.90000000000012
 21
79.45935674649482
 31
0.0
  0
LINE
  5
48E
330
1F
100
AcDbEntity
  8
0
  6
Continuous
 62
     7
100
AcDbLine
 10
62.90000000000012
 20
79.45935674649482
 30
0.0
 11
62.90000000000012
 21
79.83307400925176
 31
0.0
  0
LINE
  5
48F
330
1F
100
AcDbEntity
  8
0
  6
Continuous
 62
     7
100
AcDbLine
 10
63.90000000000012
 20
83.00935674649483
 30
0.0
 11
63.90000000000012
 21
79.90935674649481
 31
0.0
  0
LINE
  5
490
330
1F
100
AcDbEntity
  8
0
  6
Continuous
 62
     7
100
AcDbLine
 10
63.0371181354349
 20
79.65131710938664
 30
0.0
 11
63.06145598562981
 21
79.63339400564305
 31
0.0
  0
LINE
  5
491
330
1F
100
AcDbEntity
  8
0
  6
Continuous
 62
     7
100
AcDbLine
 10
63.90000000000012
 20
79.90935674649481
 30
0.0
 11
63.31692500357653
 21
80.18124908260583
 31
0.0
  0
LINE
  5
492
330
1F
100
AcDbEntity
  8
0
  6
Continuous
 62
     7
100
AcDbLine
 10
64.95000000000016
 20
78.4593567464948
 30
0.0
 11
64.95000000000016
 21
76.45935674649469
 31
0.0
  0
LINE
  5
493
330
1F
100
AcDbEntity
  8
0
  6
Continuous
 62
     7
100
AcDbLine
 10
67.15000000000012
 20
76.45935674649482
 30
0.0
 11
64.95000000000016
 21
76.45935674649469
 31
0.0
  0
LINE
  5
494
330
1F
100
AcDbEntity
  8
0
  6
Continuous
 62
     7
100
AcDbLine
 10
62.90000000000012
 20
76.45935674649476
 30
0.0
 11
62.90000000000012
 21
78.45935674649482
 31
0.0
  0
LINE
  5
495
330
1F
100
AcDbEntity
  8
0
  6
Continuous
 62
     7
100
AcDbLine
 10
67.45000000000016
 20
86.90935674649461
 30
0.0
 11
67.45000000000016
 21
86.65935674649464
 31
0.0
  0
LINE
  5
496
330
1F
100
AcDbEntity
  8
0
  6
Continuous
 62
     7
100
AcDbLine
 10
68.55000000000015
 20
88.10935674649461
 30
0.0
 11
68.55000000000015
 21
89.7093567464946
 31
0.0
  0
LINE
  5
497
330
1F
100
AcDbEntity
  8
0
  6
Continuous
 62
     7
100
AcDbLine
 10
68.55000000000015
 20
89.7093567464946
 30
0.0
 11
68.55000000000015
 21
93.2093567464946
 31
0.0
  0
LINE
  5
498
330
1F
100
AcDbEntity
  8
0
  6
Continuous
 62
     7
100
AcDbLine
 10
70.20000000000016
 20
86.15935674649464
 30
0.0
 11
67.95000000000016
 21
86.15935674649464
 31
0.0
  0
LINE
  5
499
330
1F
100
AcDbEntity
  8
0
  6
Continuous
 62
     7
100
AcDbLine
 10
70.20000000000016
 20
87.60935674649461
 30
0.0
 11
70.20000000000016
 21
86.90935674649461
 31
0.0
  0
LINE
  5
49A
330
1F
100
AcDbEntity
  8
0
  6
Continuous
 62
     7
100
AcDbLine
 10
68.55000000000015
 20
89.7093567464946
 30
0.0
 11
69.25000000000017
 21
89.70935674649459
 31
0.0
  0
LINE
  5
49B
330
1F
100
AcDbEntity
  8
0
  6
Continuous
 62
     7
100
AcDbLine
 10
68.55000000000015
 20
93.2093567464946
 30
0.0
 11
69.25000000000017
 21
93.20935674649459
 31
0.0
  0
LINE
  5
49C
330
1F
100
AcDbEntity
  8
0
  6
Continuous
 62
     7
100
AcDbLine
 10
70.70000000000016
 20
84.95935674649485
 30
0.0
 11
70.70000000000016
 21
85.65935674649464
 31
0.0
  0
LINE
  5
49D
330
1F
100
AcDbEntity
  8
0
  6
Continuous
 62
     7
100
AcDbLine
 10
70.70000000000016
 20
87.40935674649461
 30
0.0
 11
70.70000000000016
 21
88.10935674649463
 31
0.0
  0
LINE
  5
49E
330
1F
100
AcDbEntity
  8
0
  6
Continuous
 62
     7
100
AcDbLine
 10
70.20000000000016
 20
87.60935674649461
 30
0.0
 11
68.05000000000015
 21
87.60935674649461
 31
0.0
  0
LINE
  5
49F
330
1F
100
AcDbEntity
  8
0
  6
Continuous
 62
     7
100
AcDbLine
 10
68.05000000000015
 20
87.60935674649461
 30
0.0
 11
68.55000000000015
 21
88.10935674649461
 31
0.0
  0
LINE
  5
4A0
330
1F
100
AcDbEntity
  8
0
  6
Continuous
 62
     7
100
AcDbLine
 10
70.70000000000016
 20
88.10935674649463
 30
0.0
 11
68.55000000000015
 21
88.10935674649461
 31
0.0
  0
LINE
  5
4A1
330
1F
100
AcDbEntity
  8
0
  6
Continuous
 62
     7
100
AcDbLine
 10
69.25000000000017
 20
89.70935674649459
 30
0.0
 11
69.25000000000017
 21
93.20935674649459
 31
0.0
  0
LINE
  5
4A2
330
1F
100
AcDbEntity
  8
0
  6
Continuous
 62
     7
100
AcDbLine
 10
70.70000000000016
 20
88.10935674649463
 30
0.0
 11
70.95000000000013
 21
88.10935674649458
 31
0.0
  0
LINE
  5
4A3
330
1F
100
AcDbEntity
  8
0
  6
Continuous
 62
     7
100
AcDbLine
 10
70.70000000000016
 20
88.10935674649463
 30
0.0
 11
70.20000000000016
 21
87.60935674649461
 31
0.0
  0
LINE
  5
4A4
330
1F
100
AcDbEntity
  8
0
  6
Continuous
 62
     7
100
AcDbLine
 10
70.70000000000016
 20
87.40935674649461
 30
0.0
 11
70.20000000000016
 21
86.90935674649461
 31
0.0
  0
LINE
  5
4A5
330
1F
100
AcDbEntity
  8
1
  6
Continuous
 62
     4
100
AcDbLine
 10
82.12900704275759
 20
163.0497289057428
 30
0.0
 11
81.44114217844444
 21
163.4468678703202
 31
0.0
  0
LINE
  5
4A6
330
1F
100
AcDbEntity
  8
1
  6
Continuous
 62
     4
100
AcDbLine
 10
81.46709934313535
 20
162.6675763171868
 30
0.0
 11
82.12900704275759
 21
163.0497289057428
 31
0.0
  0
LINE
  5
4A7
330
1F
100
AcDbEntity
  8
1
  6
Continuous
 62
     4
100
AcDbLine
 10
83.2609852209039
 20
163.4468678703202
 30
0.0
 11
81.44114217844444
 21
163.4468678703202
 31
0.0
  0
LINE
  5
4A8
330
1F
100
AcDbEntity
  8
1
  6
Continuous
 62
     4
100
AcDbLine
 10
82.79091474238018
 20
162.667576317187
 30
0.0
 11
81.46709934313535
 21
162.6675763171868
 31
0.0
  0
LINE
  5
4A9
330
1F
100
AcDbEntity
  8
1
  6
Continuous
 62
     4
100
AcDbLine
 10
81.60719866129503
 20
162.2629441645981
 30
0.0
 11
83.0361895805768
 21
162.2629441645981
 31
0.0
  0
LINE
  5
4AA
330
1F
100
AcDbEntity
  8
1
  6
Continuous
 62
     4
100
AcDbLine
 10
82.81427593563828
 20
161.878293846705
 30
0.0
 11
81.82911230623344
 21
161.878293846705
 31
0.0
  0
LINE
  5
4AB
330
1F
100
AcDbEntity
  8
1
  6
Continuous
 62
     4
100
AcDbLine
 10
83.0361895805768
 20
162.2629441645981
 30
0.0
 11
83.48253500088899
 21
163.0366095598061
 31
0.0
  0
LINE
  5
4AC
330
1F
100
AcDbEntity
  8
1
  6
Continuous
 62
     4
100
AcDbLine
 10
83.0361895805768
 20
163.8365136468871
 30
0.0
 11
82.76236257471058
 21
164.3111471237218
 31
0.0
  0
LINE
  5
4AD
330
1F
100
AcDbEntity
  8
1
  6
Continuous
 62
     4
100
AcDbLine
 10
81.61398990922041
 20
163.8365136468871
 30
0.0
 11
81.8878169150864
 21
164.3111471237216
 31
0.0
  0
LINE
  5
4AE
330
1F
100
AcDbEntity
  8
1
  6
Continuous
 62
     4
100
AcDbLine
 10
81.61398990922041
 20
163.8365136468871
 30
0.0
 11
83.0361895805768
 21
163.8365136468871
 31
0.0
  0
LINE
  5
4AF
330
1F
100
AcDbEntity
  8
1
  6
Continuous
 62
     4
100
AcDbLine
 10
82.33058856239913
 20
163.8365136468871
 30
0.0
 11
82.33058856239913
 21
164.3241121428851
 31
0.0
  0
LINE
  5
4B0
330
1F
100
AcDbEntity
  8
1
  6
Continuous
 62
     4
100
AcDbLine
 10
83.79571001095499
 20
163.0497289057428
 30
0.0
 11
82.36755074746563
 21
160.5742528490278
 31
0.0
  0
LINE
  5
4B1
330
1F
100
AcDbEntity
  8
1
  6
Continuous
 62
     4
100
AcDbLine
 10
82.36755074746563
 20
165.5252049624576
 30
0.0
 11
83.79571001095499
 21
163.0497289057428
 31
0.0
  0
LINE
  5
4B2
330
1F
100
AcDbEntity
  8
1
  6
Continuous
 62
     4
100
AcDbLine
 10
80.85446947884233
 20
163.0497289057426
 30
0.0
 11
82.28262874233158
 21
165.5252049624578
 31
0.0
  0
LINE
  5
4B3
330
1F
100
AcDbEntity
  8
1
  6
Continuous
 62
     4
100
AcDbLine
 10
82.28262874233158
 20
160.5742528490276
 30
0.0
 11
80.85446947884233
 21
163.0497289057426
 31
0.0
  0
ARC
  5
4B4
102
{ACAD_REACTORS
330
5E2
102
}
330
1F
100
AcDbEntity
  8
1
  6
Continuous
 62
     7
100
AcDbCircle
 10
195.6763006887428
 20
10.84673060906323
 30
0.0
 40
0.3333333333333172
100
AcDbArc
 50
299.9816393688334
 51
119.9816393688365
  0
ARC
  5
4B5
102
{ACAD_REACTORS
330
5E2
102
}
330
1F
100
AcDbEntity
  8
1
  6
Continuous
 62
     7
100
AcDbCircle
 10
195.6763006887428
 20
12.5
 30
0.0
 40
0.3333333333333695
100
AcDbArc
 50
270.0
 51
90.0
  0
ARC
  5
4B6
102
{ACAD_REACTORS
330
5E2
102
}
330
1F
100
AcDbEntity
  8
1
  6
Continuous
 62
     7
100
AcDbCircle
 10
195.6763006887428
 20
14.15326939093666
 30
0.0
 40
0.3333333333333613
100
AcDbArc
 50
240.018360631154
 51
60.01836063115638
  0
ARC
  5
4B7
102
{ACAD_REACTORS
330
5E3
102
}
330
1F
100
AcDbEntity
  8
1
  6
Continuous
 62
     7
100
AcDbCircle
 10
187.6763006887428
 20
10.84673060906323
 30
0.0
 40
0.3333333333333997
100
AcDbArc
 50
180.0
 51
0.0
  0
ARC
  5
4B8
102
{ACAD_REACTORS
330
5E3
102
}
330
1F
100
AcDbEntity
  8
1
  6
Continuous
 62
     7
100
AcDbCircle
 10
187.6763006887428
 20
14.15326939093666
 30
0.0
 40
0.3333333333333144
100
AcDbArc
 50
0.0
 51
180.0
  0
ARC
  5
4B9
102
{ACAD_REACTORS
330
5E4
102
}
330
1F
100
AcDbEntity
  8
1
  6
Continuous
 62
     7
100
AcDbCircle
 10
191.3429673554094
 20
8.7313459936787
 30
0.0
 40
0.3333333333333567
100
AcDbArc
 50
240.0183606311536
 51
60.01836063113668
  0
ARC
  5
4BA
102
{ACAD_REACTORS
330
5E4
102
}
330
1F
100
AcDbEntity
  8
1
  6
Continuous
 62
     7
100
AcDbCircle
 10
189.0096340220761
 20
14.92250016016737
 30
0.0
 40
0.333333333333286
100
AcDbArc
 50
0.0
 51
180.0
  0
ARC
  5
4BB
102
{ACAD_REACTORS
330
5E1
102
}
330
1F
100
AcDbEntity
  8
1
  6
Continuous
 62
     7
100
AcDbCircle
 10
193.0780011429341
 20
15.73121731203457
 30
0.0
 40
0.2649662124752865
100
AcDbArc
 50
0.0
 51
149.9999999999716
  0
ARC
  5
4BC
102
{ACAD_REACTORS
330
5E1
102
}
330
1F
100
AcDbEntity
  8
1
  6
Continuous
 62
     7
100
AcDbCircle
 10
193.0096340220762
 20
9.3082690706018
 30
0.0
 40
0.3333333333333997
100
AcDbArc
 50
180.0
 51
0.0
  0
ARC
  5
4BD
102
{ACAD_REACTORS
330
5E1
102
}
330
1F
100
AcDbEntity
  8
1
  6
Continuous
 62
     7
100
AcDbCircle
 10
190.3429673554094
 20
10.84758507263291
 30
0.0
 40
0.333333333333286
100
AcDbArc
 50
180.0
 51
0.0
  0
ARC
  5
4BE
102
{ACAD_REACTORS
330
5E1
102
}
330
1F
100
AcDbEntity
  8
1
  6
Continuous
 62
     7
100
AcDbCircle
 10
190.2746002345514
 20
15.73121731203457
 30
0.0
 40
0.2649662124752854
100
AcDbArc
 50
30.00000000001921
 51
180.0
  0
ARC
  5
4BF
330
1F
100
AcDbEntity
  8
0
  6
Continuous
 62
     7
100
AcDbCircle
 10
82.35000000000016
 20
171.7997289057427
 30
0.0
 40
0.5
100
AcDbArc
 50
180.0
 51
270.0
  0
ARC
  5
4C0
330
1F
100
AcDbEntity
  8
0
  6
Continuous
 62
     7
100
AcDbCircle
 10
67.65000000000012
 20
171.7997289057427
 30
0.0
 40
0.5
100
AcDbArc
 50
180.0
 51
270.0
  0
ARC
  5
4C1
330
1F
100
AcDbEntity
  8
0
  6
Continuous
 62
     7
100
AcDbCircle
 10
72.85000000000016
 20
171.7997289057427
 30
0.0
 40
0.5
100
AcDbArc
 50
270.0
 51
0.0
  0
ARC
  5
4C2
330
1F
100
AcDbEntity
  8
0
  6
Continuous
 62
     7
100
AcDbCircle
 10
97.05000000000021
 20
171.7997289057427
 30
0.0
 40
0.5
100
AcDbArc
 50
180.0
 51
270.0
  0
ARC
  5
4C3
330
1F
100
AcDbEntity
  8
0
  6
Continuous
 62
     7
100
AcDbCircle
 10
87.55000000000021
 20
171.7997289057427
 30
0.0
 40
0.5
100
AcDbArc
 50
270.0
 51
0.0
  0
ARC
  5
4C4
330
1F
100
AcDbEntity
  8
0
  6
Continuous
 62
     7
100
AcDbCircle
 10
102.2500000000002
 20
171.7997289057427
 30
0.0
 40
0.5
100
AcDbArc
 50
270.0
 51
0.0
  0
ARC
  5
4C5
330
1F
100
AcDbEntity
  8
0
  6
Continuous
 62
     7
100
AcDbCircle
 10
140.8
 20
141.2997289057427
 30
0.0
 40
0.5
100
AcDbArc
 50
270.0
 51
0.0
  0
ARC
  5
4C6
330
1F
100
AcDbEntity
  8
0
  6
Continuous
 62
     7
100
AcDbCircle
 10
144.8000000000002
 20
141.2997289057427
 30
0.0
 40
0.5
100
AcDbArc
 50
180.0
 51
270.0
  0
ARC
  5
4C7
330
1F
100
AcDbEntity
  8
0
  6
Continuous
 62
     7
100
AcDbCircle
 10
141.8
 20
145.7997289057428
 30
0.0
 40
0.5
100
AcDbArc
 50
90.0
 51
180.0
  0
ARC
  5
4C8
330
1F
100
AcDbEntity
  8
0
  6
Continuous
 62
     7
100
AcDbCircle
 10
143.8000000000002
 20
145.7997289057428
 30
0.0
 40
0.5
100
AcDbArc
 50
0.0
 51
90.0
  0
ARC
  5
4C9
330
1F
100
AcDbEntity
  8
0
  6
Continuous
 62
     7
100
AcDbCircle
 10
83.20000000000003
 20
241.0105516132646
 30
0.0
 40
0.5
100
AcDbArc
 50
0.0
 51
90.0
  0
ARC
  5
4CA
330
1F
100
AcDbEntity
  8
0
  6
Continuous
 62
     7
100
AcDbCircle
 10
84.90000000000002
 20
239.3105516132642
 30
0.0
 40
0.5
100
AcDbArc
 50
270.0
 51
0.0
  0
ARC
  5
4CB
330
1F
100
AcDbEntity
  8
0
  6
Continuous
 62
     7
100
AcDbCircle
 10
85.90000000000002
 20
241.0105516132646
 30
0.0
 40
0.5
100
AcDbArc
 50
90.0
 51
180.0
  0
ARC
  5
4CC
330
1F
100
AcDbEntity
  8
0
  6
Continuous
 62
     7
100
AcDbCircle
 10
84.20000000000003
 20
239.3105516132642
 30
0.0
 40
0.5
100
AcDbArc
 50
180.0
 51
270.0
  0
ARC
  5
4CD
330
1F
100
AcDbEntity
  8
0
  6
Continuous
 62
     7
100
AcDbCircle
 10
104.2000000000001
 20
240.2105516132645
 30
0.0
 40
1.299999999999997
100
AcDbArc
 50
0.0
 51
90.0
  0
ARC
  5
4CE
330
1F
100
AcDbEntity
  8
0
  6
Continuous
 62
     7
100
AcDbCircle
 10
66.10000000000001
 20
215.0105516132645
 30
0.0
 40
0.5
100
AcDbArc
 50
180.0
 51
270.0
  0
ARC
  5
4CF
330
1F
100
AcDbEntity
  8
0
  6
Continuous
 62
     7
100
AcDbCircle
 10
107.7000000000002
 20
239.1466144978411
 30
0.0
 40
0.2000000000000028
100
AcDbArc
 50
0.0
 51
46.66077701319295
  0
ARC
  5
4D0
330
1F
100
AcDbEntity
  8
0
  6
Continuous
 62
     7
100
AcDbCircle
 10
107.7000000000002
 20
238.5311107503118
 30
0.0
 40
0.2000000000000024
100
AcDbArc
 50
282.4999999999935
 51
0.0
  0
ARC
  5
4D1
330
1F
100
AcDbEntity
  8
0
  6
Continuous
 62
     7
100
AcDbCircle
 10
107.7000000000002
 20
236.8744887286881
 30
0.0
 40
0.200000000000005
100
AcDbArc
 50
313.3392229867791
 51
0.0
  0
ARC
  5
4D2
330
1F
100
AcDbEntity
  8
0
  6
Continuous
 62
     7
100
AcDbCircle
 10
107.7000000000002
 20
237.4899924762173
 30
0.0
 40
0.2000000000000028
100
AcDbArc
 50
0.0
 51
77.5000000000066
  0
ARC
  5
4D3
330
1F
100
AcDbEntity
  8
0
  6
Continuous
 62
     7
100
AcDbCircle
 10
107.2000000000002
 20
239.3548118363486
 30
0.0
 40
0.2000000000000028
100
AcDbArc
 50
180.0
 51
294.9999999999807
  0
ARC
  5
4D4
330
1F
100
AcDbEntity
  8
0
  6
Continuous
 62
     7
100
AcDbCircle
 10
107.2000000000002
 20
236.6662913901806
 30
0.0
 40
0.1999999999999641
100
AcDbArc
 50
65.00000000000897
 51
180.0
  0
ARC
  5
4D5
330
1F
100
AcDbEntity
  8
0
  6
Continuous
 62
     7
100
AcDbCircle
 10
107.2000000000002
 20
238.0105516132646
 30
0.0
 40
0.2000000000000024
100
AcDbArc
 50
102.4999999999934
 51
180.0
  0
ARC
  5
4D6
330
1F
100
AcDbEntity
  8
0
  6
Continuous
 62
     7
100
AcDbCircle
 10
107.7000000000002
 20
236.8744887286881
 30
0.0
 40
0.2000000000000834
100
AcDbArc
 50
244.9999999999935
 51
313.3392229867791
  0
ARC
  5
4D7
330
1F
100
AcDbEntity
  8
0
  6
Continuous
 62
     7
100
AcDbCircle
 10
107.7000000000002
 20
239.1466144978411
 30
0.0
 40
0.1999999999999016
100
AcDbArc
 50
46.66077701319295
 51
115.0000000000203
  0
ARC
  5
4D8
330
1F
100
AcDbEntity
  8
0
  6
Continuous
 62
     7
100
AcDbCircle
 10
107.2000000000002
 20
238.0105516132646
 30
0.0
 40
0.2000000000001023
100
AcDbArc
 50
180.0
 51
257.5000000000065
  0
ARC
  5
4D9
330
1F
100
AcDbEntity
  8
0
  6
Continuous
 62
     7
100
AcDbCircle
 10
107.7000000000001
 20
217.4899924762173
 30
0.0
 40
0.2000000000001023
100
AcDbArc
 50
0.0
 51
77.49999999997877
  0
ARC
  5
4DA
330
1F
100
AcDbEntity
  8
0
  6
Continuous
 62
     7
100
AcDbCircle
 10
107.7000000000001
 20
218.5311107503118
 30
0.0
 40
0.2000000000000239
100
AcDbArc
 50
282.5000000000212
 51
0.0
  0
ARC
  5
4DB
330
1F
100
AcDbEntity
  8
0
  6
Continuous
 62
     7
100
AcDbCircle
 10
107.7000000000001
 20
219.1466144978411
 30
0.0
 40
0.2000000000001023
100
AcDbArc
 50
0.0
 51
46.66077701317223
  0
ARC
  5
4DC
330
1F
100
AcDbEntity
  8
0
  6
Continuous
 62
     7
100
AcDbCircle
 10
107.7000000000001
 20
216.8744887286881
 30
0.0
 40
0.2000000000000732
100
AcDbArc
 50
313.3392229867999
 51
0.0
  0
ARC
  5
4DD
330
1F
100
AcDbEntity
  8
0
  6
Continuous
 62
     7
100
AcDbCircle
 10
107.7000000000001
 20
219.1466144978411
 30
0.0
 40
0.1999999999999699
100
AcDbArc
 50
46.66077701317223
 51
114.9999999999945
  0
ARC
  5
4DE
330
1F
100
AcDbEntity
  8
0
  6
Continuous
 62
     7
100
AcDbCircle
 10
107.2000000000001
 20
218.0105516132646
 30
0.0
 40
0.2000000000000028
100
AcDbArc
 50
180.0
 51
257.5000000000344
  0
ARC
  5
4DF
330
1F
100
AcDbEntity
  8
0
  6
Continuous
 62
     7
100
AcDbCircle
 10
107.2000000000001
 20
218.0105516132646
 30
0.0
 40
0.1999999999999192
100
AcDbArc
 50
102.4999999999987
 51
180.0
  0
ARC
  5
4E0
330
1F
100
AcDbEntity
  8
0
  6
Continuous
 62
     7
100
AcDbCircle
 10
107.2000000000001
 20
219.3548118363486
 30
0.0
 40
0.1999999999999034
100
AcDbArc
 50
180.0
 51
295.0000000000065
  0
ARC
  5
4E1
330
1F
100
AcDbEntity
  8
0
  6
Continuous
 62
     7
100
AcDbCircle
 10
107.7000000000001
 20
216.8744887286881
 30
0.0
 40
0.2000000000000413
100
AcDbArc
 50
245.0000000000193
 51
313.3392229867999
  0
ARC
  5
4E2
330
1F
100
AcDbEntity
  8
0
  6
Continuous
 62
     7
100
AcDbCircle
 10
86.70000000000003
 20
215.0105516132645
 30
0.0
 40
0.5
100
AcDbArc
 50
180.0
 51
270.0
  0
ARC
  5
4E3
330
1F
100
AcDbEntity
  8
0
  6
Continuous
 62
     7
100
AcDbCircle
 10
104.2000000000001
 20
215.8105516132646
 30
0.0
 40
1.300000000000097
100
AcDbArc
 50
270.0
 51
0.0
  0
ARC
  5
4E4
330
1F
100
AcDbEntity
  8
0
  6
Continuous
 62
     7
100
AcDbCircle
 10
85.70000000000003
 20
216.7105516132646
 30
0.0
 40
0.5
100
AcDbArc
 50
0.0
 51
90.0
  0
ARC
  5
4E5
330
1F
100
AcDbEntity
  8
0
  6
Continuous
 62
     7
100
AcDbCircle
 10
107.2000000000001
 20
216.6662913901806
 30
0.0
 40
0.2000000000000061
100
AcDbArc
 50
64.99999999998315
 51
180.0
  0
ARC
  5
4E6
330
1F
100
AcDbEntity
  8
0
  6
Continuous
 62
     7
100
AcDbCircle
 10
84.0000000000001
 20
215.0105516132645
 30
0.0
 40
0.5
100
AcDbArc
 50
270.0
 51
0.0
  0
ARC
  5
4E7
330
1F
100
AcDbEntity
  8
0
  6
Continuous
 62
     7
100
AcDbCircle
 10
85.0000000000001
 20
216.7105516132646
 30
0.0
 40
0.5
100
AcDbArc
 50
90.0
 51
180.0
  0
ARC
  5
4E8
330
1F
100
AcDbEntity
  8
0
  6
Continuous
 62
     7
100
AcDbCircle
 10
67.20000000000003
 20
238.7105516132645
 30
0.0
 40
2.800000000000097
100
AcDbArc
 50
89.99999999999943
 51
180.0
  0
ARC
  5
4E9
330
1F
100
AcDbEntity
  8
0
  6
Continuous
 62
     7
100
AcDbCircle
 10
65.10000000000004
 20
216.7105516132645
 30
0.0
 40
0.5
100
AcDbArc
 50
0.0
 51
90.0
  0
ARC
  5
4EA
330
1F
100
AcDbEntity
  8
0
  6
DASHED
 62
     7
100
AcDbCircle
 10
97.20000000000024
 20
92.45935674649489
 30
0.0
 40
1.0
100
AcDbArc
 50
0.0
 51
90.0
  0
ARC
  5
4EB
330
1F
100
AcDbEntity
  8
0
  6
DASHED
 62
     7
100
AcDbCircle
 10
97.20000000000024
 20
89.45935674649489
 30
0.0
 40
0.5
100
AcDbArc
 50
270.0
 51
0.0
  0
ARC
  5
4EC
330
1F
100
AcDbEntity
  8
0
  6
DASHED
 62
     7
100
AcDbCircle
 10
93.70000000000024
 20
89.45935674649489
 30
0.0
 40
0.5
100
AcDbArc
 50
180.0
 51
270.0
  0
ARC
  5
4ED
330
1F
100
AcDbEntity
  8
0
  6
DASHED
 62
     7
100
AcDbCircle
 10
97.20000000000024
 20
89.45935674649489
 30
0.0
 40
1.0
100
AcDbArc
 50
270.0
 51
0.0
  0
ARC
  5
4EE
330
1F
100
AcDbEntity
  8
0
  6
DASHED
 62
     7
100
AcDbCircle
 10
93.70000000000024
 20
89.45935674649489
 30
0.0
 40
1.0
100
AcDbArc
 50
180.0
 51
270.0
  0
ARC
  5
4EF
330
1F
100
AcDbEntity
  8
0
  6
DASHED
 62
     7
100
AcDbCircle
 10
93.70000000000024
 20
92.45935674649489
 30
0.0
 40
0.5
100
AcDbArc
 50
90.0
 51
180.0
  0
ARC
  5
4F0
330
1F
100
AcDbEntity
  8
0
  6
DASHED
 62
     7
100
AcDbCircle
 10
97.20000000000024
 20
92.45935674649489
 30
0.0
 40
0.5
100
AcDbArc
 50
0.0
 51
90.0
  0
ARC
  5
4F1
330
1F
100
AcDbEntity
  8
0
  6
DASHED
 62
     7
100
AcDbCircle
 10
93.70000000000024
 20
92.45935674649489
 30
0.0
 40
1.0
100
AcDbArc
 50
90.0
 51
180.0
  0
ARC
  5
4F2
330
1F
100
AcDbEntity
  8
0
  6
DASHED
 62
     7
100
AcDbCircle
 10
72.70000000000013
 20
93.45935674649469
 30
0.0
 40
1.0
100
AcDbArc
 50
90.0
 51
180.0
  0
ARC
  5
4F3
330
1F
100
AcDbEntity
  8
0
  6
DASHED
 62
     7
100
AcDbCircle
 10
76.20000000000013
 20
90.45935674649469
 30
0.0
 40
0.5
100
AcDbArc
 50
270.0
 51
0.0
  0
ARC
  5
4F4
330
1F
100
AcDbEntity
  8
0
  6
DASHED
 62
     7
100
AcDbCircle
 10
72.70000000000013
 20
93.45935674649469
 30
0.0
 40
0.5
100
AcDbArc
 50
90.0
 51
180.0
  0
ARC
  5
4F5
330
1F
100
AcDbEntity
  8
0
  6
DASHED
 62
     7
100
AcDbCircle
 10
72.70000000000013
 20
90.45935674649469
 30
0.0
 40
0.5
100
AcDbArc
 50
180.0
 51
270.0
  0
ARC
  5
4F6
330
1F
100
AcDbEntity
  8
0
  6
DASHED
 62
     7
100
AcDbCircle
 10
72.70000000000013
 20
90.45935674649469
 30
0.0
 40
1.0
100
AcDbArc
 50
180.0
 51
270.0
  0
ARC
  5
4F7
330
1F
100
AcDbEntity
  8
0
  6
DASHED
 62
     7
100
AcDbCircle
 10
76.20000000000013
 20
90.45935674649469
 30
0.0
 40
1.0
100
AcDbArc
 50
270.0
 51
0.0
  0
ARC
  5
4F8
330
1F
100
AcDbEntity
  8
0
  6
DASHED
 62
     7
100
AcDbCircle
 10
76.20000000000013
 20
93.45935674649469
 30
0.0
 40
1.0
100
AcDbArc
 50
0.0
 51
90.0
  0
ARC
  5
4F9
330
1F
100
AcDbEntity
  8
0
  6
DASHED
 62
     7
100
AcDbCircle
 10
76.20000000000013
 20
93.45935674649469
 30
0.0
 40
0.5
100
AcDbArc
 50
0.0
 51
90.0
  0
ARC
  5
4FA
330
1F
100
AcDbEntity
  8
0
  6
Continuous
 62
     7
100
AcDbCircle
 10
63.19013952505438
 20
103.0093567464948
 30
0.0
 40
0.2999999999999928
100
AcDbArc
 50
194.7306766026228
 51
294.9999999999889
  0
ARC
  5
4FB
330
1F
100
AcDbEntity
  8
0
  6
Continuous
 62
     7
100
AcDbCircle
 10
63.19013952505438
 20
103.0093567464948
 30
0.0
 40
0.3000000000000091
100
AcDbArc
 50
120.668579031356
 51
165.2693233973588
  0
ARC
  5
4FC
330
1F
100
AcDbEntity
  8
0
  6
Continuous
 62
     7
100
AcDbCircle
 10
62.9942363139717
 20
103.3593567464948
 30
0.0
 40
0.1000000000000118
100
AcDbArc
 50
312.2368356759543
 51
90.0
  0
ARC
  5
4FD
330
1F
100
AcDbEntity
  8
0
  6
Continuous
 62
     7
100
AcDbCircle
 10
63.19013952505438
 20
99.90935674649481
 30
0.0
 40
0.2999999999999964
100
AcDbArc
 50
194.7306766026255
 51
239.3314209686413
  0
ARC
  5
4FE
330
1F
100
AcDbEntity
  8
0
  6
Continuous
 62
     7
100
AcDbCircle
 10
62.9942363139717
 20
99.55935674649481
 30
0.0
 40
0.0999999999999943
100
AcDbArc
 50
270.0
 51
47.76316432406211
  0
ARC
  5
4FF
330
1F
100
AcDbEntity
  8
0
  6
Continuous
 62
     7
100
AcDbCircle
 10
64.90000000000015
 20
99.45935674649476
 30
0.0
 40
0.5
100
AcDbArc
 50
270.0
 51
0.0
  0
ARC
  5
500
330
1F
100
AcDbEntity
  8
0
  6
Continuous
 62
     7
100
AcDbCircle
 10
64.90000000000015
 20
98.45935674649476
 30
0.0
 40
0.5
100
AcDbArc
 50
90.0
 51
180.0
  0
ARC
  5
501
330
1F
100
AcDbEntity
  8
0
  6
Continuous
 62
     7
100
AcDbCircle
 10
63.19013952505438
 20
99.90935674649481
 30
0.0
 40
0.2999999999999748
100
AcDbArc
 50
65.00000000001003
 51
165.2693233973693
  0
ARC
  5
502
330
1F
100
AcDbEntity
  8
0
  6
Continuous
 62
     7
100
AcDbCircle
 10
107.7000000000002
 20
81.97991588354208
 30
0.0
 40
0.2000000000000024
100
AcDbArc
 50
282.4999999999935
 51
0.0
  0
ARC
  5
503
330
1F
100
AcDbEntity
  8
0
  6
Continuous
 62
     7
100
AcDbCircle
 10
107.7000000000002
 20
82.59541963107131
 30
0.0
 40
0.2000000000000028
100
AcDbArc
 50
359.9999999999919
 51
115.0000000000134
  0
ARC
  5
504
330
1F
100
AcDbEntity
  8
0
  6
Continuous
 62
     7
100
AcDbCircle
 10
107.7000000000002
 20
80.3232938619183
 30
0.0
 40
0.2000000000000319
100
AcDbArc
 50
244.9999999999866
 51
0.0
  0
ARC
  5
505
330
1F
100
AcDbEntity
  8
0
  6
Continuous
 62
     7
100
AcDbCircle
 10
107.7000000000002
 20
80.93879760944753
 30
0.0
 40
0.2000000000000028
100
AcDbArc
 50
0.0
 51
77.5000000000066
  0
ARC
  5
506
330
1F
100
AcDbEntity
  8
0
  6
Continuous
 62
     7
100
AcDbCircle
 10
107.2000000000002
 20
82.8036169695788
 30
0.0
 40
0.2000000000000028
100
AcDbArc
 50
180.0
 51
294.999999999991
  0
ARC
  5
507
330
1F
100
AcDbEntity
  8
0
  6
Continuous
 62
     7
100
AcDbCircle
 10
107.2000000000002
 20
80.11509652341081
 30
0.0
 40
0.1999999999999641
100
AcDbArc
 50
65.00000000000897
 51
180.0
  0
ARC
  5
508
330
1F
100
AcDbEntity
  8
0
  6
Continuous
 62
     7
100
AcDbCircle
 10
107.2000000000002
 20
81.45935674649482
 30
0.0
 40
0.1999999999999747
100
AcDbArc
 50
102.4999999999952
 51
257.5000000000065
  0
ARC
  5
509
330
1F
100
AcDbEntity
  8
0
  6
Continuous
 62
     7
100
AcDbCircle
 10
102.9500000000002
 20
78.4593567464948
 30
0.0
 40
0.5
100
AcDbArc
 50
270.0
 51
0.0
  0
ARC
  5
50A
330
1F
100
AcDbEntity
  8
0
  6
Continuous
 62
     7
100
AcDbCircle
 10
85.45000000000019
 20
78.4593567464948
 30
0.0
 40
0.5
100
AcDbArc
 50
180.0
 51
270.0
  0
ARC
  5
50B
330
1F
100
AcDbEntity
  8
0
  6
Continuous
 62
     7
100
AcDbCircle
 10
88.2500000000002
 20
78.4593567464948
 30
0.0
 40
0.5
100
AcDbArc
 50
270.0
 51
0.0
  0
ARC
  5
50C
330
1F
100
AcDbEntity
  8
0
  6
Continuous
 62
     7
100
AcDbCircle
 10
96.35000000000022
 20
78.45935674649482
 30
0.0
 40
0.5
100
AcDbArc
 50
180.0
 51
270.0
  0
ARC
  5
50D
330
1F
100
AcDbEntity
  8
0
  6
Continuous
 62
     7
100
AcDbCircle
 10
89.2500000000002
 20
79.45935674649486
 30
0.0
 40
0.5
100
AcDbArc
 50
90.0
 51
180.0
  0
ARC
  5
50E
330
1F
100
AcDbEntity
  8
0
  6
Continuous
 62
     7
100
AcDbCircle
 10
95.35000000000022
 20
79.45935674649486
 30
0.0
 40
0.5
100
AcDbArc
 50
0.0
 51
90.0
  0
ARC
  5
50F
330
1F
100
AcDbEntity
  8
0
  6
Continuous
 62
     7
100
AcDbCircle
 10
105.0000000000002
 20
80.45935674649485
 30
0.0
 40
0.5
100
AcDbArc
 50
270.0
 51
0.0
  0
ARC
  5
510
330
1F
100
AcDbEntity
  8
0
  6
Continuous
 62
     7
100
AcDbCircle
 10
103.9500000000002
 20
79.45935674649485
 30
0.0
 40
0.5
100
AcDbArc
 50
90.0
 51
180.0
  0
ARC
  5
511
330
1F
100
AcDbEntity
  8
0
  6
Continuous
 62
     7
100
AcDbCircle
 10
81.95000000000019
 20
81.45935674649486
 30
0.0
 40
3.0
100
AcDbArc
 50
0.0
 51
90.0
  0
ARC
  5
512
330
1F
100
AcDbEntity
  8
0
  6
Continuous
 62
     7
100
AcDbCircle
 10
98.10000000000016
 20
78.4593567464948
 30
0.0
 40
0.5
100
AcDbArc
 50
270.0
 51
0.0
  0
ARC
  5
513
330
1F
100
AcDbEntity
  8
0
  6
Continuous
 62
     7
100
AcDbCircle
 10
100.6000000000002
 20
78.4593567464948
 30
0.0
 40
0.5
100
AcDbArc
 50
180.0
 51
270.0
  0
ARC
  5
514
330
1F
100
AcDbEntity
  8
0
  6
Continuous
 62
     7
100
AcDbCircle
 10
92.80000000000021
 20
80.45935674649485
 30
0.0
 40
0.5
100
AcDbArc
 50
180.0
 51
270.0
  0
ARC
  5
515
330
1F
100
AcDbEntity
  8
0
  6
Continuous
 62
     7
100
AcDbCircle
 10
90.30000000000021
 20
80.45935674649485
 30
0.0
 40
0.5
100
AcDbArc
 50
270.0
 51
0.0
  0
ARC
  5
516
330
1F
100
AcDbEntity
  8
0
  6
Continuous
 62
     7
100
AcDbCircle
 10
105.0000000000002
 20
86.90935674649498
 30
0.0
 40
0.5
100
AcDbArc
 50
0.0
 51
90.0
  0
ARC
  5
517
330
1F
100
AcDbEntity
  8
0
  6
Continuous
 62
     7
100
AcDbCircle
 10
102.9500000000002
 20
86.90935674649498
 30
0.0
 40
0.5
100
AcDbArc
 50
90.0
 51
180.0
  0
ARC
  5
518
330
1F
100
AcDbEntity
  8
0
  6
Continuous
 62
     7
100
AcDbCircle
 10
101.9500000000002
 20
86.65935674649499
 30
0.0
 40
0.5
100
AcDbArc
 50
270.0
 51
0.0
  0
ARC
  5
519
330
1F
100
AcDbEntity
  8
0
  6
Continuous
 62
     7
100
AcDbCircle
 10
100.6000000000002
 20
85.65935674649499
 30
0.0
 40
0.5
100
AcDbArc
 50
90.0
 51
180.0
  0
ARC
  5
51A
330
1F
100
AcDbEntity
  8
0
  6
Continuous
 62
     7
100
AcDbCircle
 10
72.70000000000016
 20
84.95935674649485
 30
0.0
 40
0.5
100
AcDbArc
 50
180.0
 51
270.0
  0
ARC
  5
51B
330
1F
100
AcDbEntity
  8
0
  6
Continuous
 62
     7
100
AcDbCircle
 10
98.10000000000016
 20
83.85935674649495
 30
0.0
 40
0.5
100
AcDbArc
 50
0.0
 51
90.0
  0
ARC
  5
51C
330
1F
100
AcDbEntity
  8
0
  6
Continuous
 62
     7
100
AcDbCircle
 10
76.20000000000016
 20
84.95935674649485
 30
0.0
 40
0.5
100
AcDbArc
 50
270.0
 51
0.0
  0
ARC
  5
51D
330
1F
100
AcDbEntity
  8
0
  6
Continuous
 62
     7
100
AcDbCircle
 10
78.70000000000013
 20
85.65935674649464
 30
0.0
 40
0.4999999999999858
100
AcDbArc
 50
90.0
 51
180.0000000000016
  0
ARC
  5
51E
330
1F
100
AcDbEntity
  8
0
  6
Continuous
 62
     7
100
AcDbCircle
 10
78.70000000000013
 20
84.95935674649485
 30
0.0
 40
0.5
100
AcDbArc
 50
180.0
 51
270.0
  0
ARC
  5
51F
330
1F
100
AcDbEntity
  8
0
  6
Continuous
 62
     7
100
AcDbCircle
 10
90.30000000000021
 20
85.65935674649499
 30
0.0
 40
0.5
100
AcDbArc
 50
0.0
 51
90.0
  0
ARC
  5
520
330
1F
100
AcDbEntity
  8
0
  6
Continuous
 62
     7
100
AcDbCircle
 10
87.95000000000019
 20
86.90935674649462
 30
0.0
 40
0.5
100
AcDbArc
 50
0.0
 51
90.0
  0
ARC
  5
521
330
1F
100
AcDbEntity
  8
0
  6
Continuous
 62
     7
100
AcDbCircle
 10
88.95000000000019
 20
86.65935674649499
 30
0.0
 40
0.5
100
AcDbArc
 50
180.0
 51
270.0
  0
ARC
  5
522
330
1F
100
AcDbEntity
  8
0
  6
Continuous
 62
     7
100
AcDbCircle
 10
80.95000000000013
 20
86.65935674649462
 30
0.0
 40
0.5
100
AcDbArc
 50
270.0
 51
0.0
  0
ARC
  5
523
330
1F
100
AcDbEntity
  8
0
  6
Continuous
 62
     7
100
AcDbCircle
 10
92.80000000000015
 20
83.85935674649495
 30
0.0
 40
0.5
100
AcDbArc
 50
90.0
 51
180.0000000000016
  0
ARC
  5
524
330
1F
100
AcDbEntity
  8
0
  6
Continuous
 62
     7
100
AcDbCircle
 10
81.95000000000013
 20
86.90935674649462
 30
0.0
 40
0.5
100
AcDbArc
 50
90.0
 51
180.0
  0
ARC
  5
525
330
1F
100
AcDbEntity
  8
0
  6
Continuous
 62
     7
100
AcDbCircle
 10
105.0000000000002
 20
96.009356746495
 30
0.0
 40
0.5
100
AcDbArc
 50
270.0
 51
0.0
  0
ARC
  5
526
330
1F
100
AcDbEntity
  8
0
  6
Continuous
 62
     7
100
AcDbCircle
 10
105.0000000000002
 20
97.95935674649478
 30
0.0
 40
0.5
100
AcDbArc
 50
0.0
 51
90.0
  0
ARC
  5
527
330
1F
100
AcDbEntity
  8
0
  6
Continuous
 62
     7
100
AcDbCircle
 10
102.9500000000001
 20
96.009356746495
 30
0.0
 40
0.5
100
AcDbArc
 50
180.0
 51
270.0
  0
ARC
  5
528
330
1F
100
AcDbEntity
  8
0
  6
Continuous
 62
     7
100
AcDbCircle
 10
81.95000000000013
 20
96.00935674649465
 30
0.0
 40
0.5
100
AcDbArc
 50
180.0
 51
270.0
  0
ARC
  5
529
330
1F
100
AcDbEntity
  8
0
  6
Continuous
 62
     7
100
AcDbCircle
 10
87.95000000000019
 20
96.00935674649465
 30
0.0
 40
0.5
100
AcDbArc
 50
270.0
 51
0.0
  0
ARC
  5
52A
330
1F
100
AcDbEntity
  8
0
  6
Continuous
 62
     7
100
AcDbCircle
 10
99.70000000000019
 20
97.25935674649497
 30
0.0
 40
0.5
100
AcDbArc
 50
180.0
 51
270.0
  0
ARC
  5
52B
330
1F
100
AcDbEntity
  8
0
  6
Continuous
 62
     7
100
AcDbCircle
 10
91.20000000000019
 20
97.25935674649497
 30
0.0
 40
0.5
100
AcDbArc
 50
270.0
 51
0.0
  0
ARC
  5
52C
330
1F
100
AcDbEntity
  8
0
  6
Continuous
 62
     7
100
AcDbCircle
 10
79.60000000000016
 20
97.25935674649465
 30
0.0
 40
0.5
100
AcDbArc
 50
180.0
 51
270.0
  0
ARC
  5
52D
330
1F
100
AcDbEntity
  8
0
  6
Continuous
 62
     7
100
AcDbCircle
 10
88.95000000000019
 20
96.25935674649497
 30
0.0
 40
0.5
100
AcDbArc
 50
90.0
 51
180.0
  0
ARC
  5
52E
330
1F
100
AcDbEntity
  8
0
  6
Continuous
 62
     7
100
AcDbCircle
 10
101.9500000000001
 20
96.25935674649497
 30
0.0
 40
0.5
100
AcDbArc
 50
0.0
 51
90.0
  0
ARC
  5
52F
330
1F
100
AcDbEntity
  8
0
  6
Continuous
 62
     7
100
AcDbCircle
 10
80.95000000000013
 20
96.25935674649465
 30
0.0
 40
0.5
100
AcDbArc
 50
0.0
 51
90.0
  0
ARC
  5
530
330
1F
100
AcDbEntity
  8
0
  6
Continuous
 62
     7
100
AcDbCircle
 10
107.7000000000002
 20
100.9387976094475
 30
0.0
 40
0.2000000000000028
100
AcDbArc
 50
0.0
 51
77.5000000000066
  0
ARC
  5
531
330
1F
100
AcDbEntity
  8
0
  6
Continuous
 62
     7
100
AcDbCircle
 10
107.7000000000001
 20
102.5954196310713
 30
0.0
 40
0.2000000000001023
100
AcDbArc
 50
0.0
 51
114.999999999979
  0
ARC
  5
532
330
1F
100
AcDbEntity
  8
0
  6
Continuous
 62
     7
100
AcDbCircle
 10
107.7000000000001
 20
101.9799158835421
 30
0.0
 40
0.2000000000000378
100
AcDbArc
 50
282.5000000000203
 51
0.0
  0
ARC
  5
533
330
1F
100
AcDbEntity
  8
0
  6
Continuous
 62
     7
100
AcDbCircle
 10
107.7000000000001
 20
100.3232938619183
 30
0.0
 40
0.1999999999999512
100
AcDbArc
 50
245.0000000000072
 51
0.0
  0
ARC
  5
534
330
1F
100
AcDbEntity
  8
0
  6
Continuous
 62
     7
100
AcDbCircle
 10
107.2000000000001
 20
102.8036169695788
 30
0.0
 40
0.2000000000000028
100
AcDbArc
 50
180.0
 51
295.0000000000186
  0
ARC
  5
535
330
1F
100
AcDbEntity
  8
0
  6
Continuous
 62
     7
100
AcDbCircle
 10
107.2000000000002
 20
101.4593567464948
 30
0.0
 40
0.2000000000000024
100
AcDbArc
 50
102.4999999999934
 51
257.4999999999797
  0
ARC
  5
536
330
1F
100
AcDbEntity
  8
0
  6
Continuous
 62
     7
100
AcDbCircle
 10
107.2000000000001
 20
100.1150965234108
 30
0.0
 40
0.1999999999999932
100
AcDbArc
 50
64.99999999998141
 51
180.0
  0
ARC
  5
537
330
1F
100
AcDbEntity
  8
0
  6
Continuous
 62
     7
100
AcDbCircle
 10
97.20000000000019
 20
97.95935674649476
 30
0.0
 40
0.5
100
AcDbArc
 50
0.0
 51
90.0
  0
ARC
  5
538
330
1F
100
AcDbEntity
  8
0
  6
Continuous
 62
     7
100
AcDbCircle
 10
99.70000000000019
 20
97.95935674649476
 30
0.0
 40
0.5
100
AcDbArc
 50
90.0
 51
180.0
  0
ARC
  5
539
330
1F
100
AcDbEntity
  8
0
  6
Continuous
 62
     7
100
AcDbCircle
 10
93.70000000000019
 20
97.95935674649476
 30
0.0
 40
0.5
100
AcDbArc
 50
90.0
 51
180.0
  0
ARC
  5
53A
330
1F
100
AcDbEntity
  8
0
  6
Continuous
 62
     7
100
AcDbCircle
 10
80.65000000000018
 20
103.4593567464948
 30
0.0
 40
0.5
100
AcDbArc
 50
270.0
 51
0.0
  0
ARC
  5
53B
330
1F
100
AcDbEntity
  8
0
  6
Continuous
 62
     7
100
AcDbCircle
 10
91.20000000000019
 20
97.95935674649476
 30
0.0
 40
0.5
100
AcDbArc
 50
0.0
 51
90.0
  0
ARC
  5
53C
330
1F
100
AcDbEntity
  8
0
  6
Continuous
 62
     7
100
AcDbCircle
 10
84.45000000000019
 20
104.5093567464948
 30
0.0
 40
0.5
100
AcDbArc
 50
0.0
 51
90.0
  0
ARC
  5
53D
330
1F
100
AcDbEntity
  8
0
  6
Continuous
 62
     7
100
AcDbCircle
 10
87.95000000000019
 20
101.4593567464948
 30
0.0
 40
3.0
100
AcDbArc
 50
180.0
 51
270.0
  0
ARC
  5
53E
330
1F
100
AcDbEntity
  8
0
  6
Continuous
 62
     7
100
AcDbCircle
 10
81.65000000000018
 20
104.5093567464948
 30
0.0
 40
0.5
100
AcDbArc
 50
90.0
 51
180.0
  0
ARC
  5
53F
330
1F
100
AcDbEntity
  8
0
  6
Continuous
 62
     7
100
AcDbCircle
 10
79.60000000000016
 20
102.4593567464948
 30
0.0
 40
0.5
100
AcDbArc
 50
90.0
 51
180.0
  0
ARC
  5
540
330
1F
100
AcDbEntity
  8
0
  6
Continuous
 62
     7
100
AcDbCircle
 10
77.10000000000016
 20
102.4593567464948
 30
0.0
 40
0.5
100
AcDbArc
 50
0.0
 51
90.0
  0
ARC
  5
541
330
1F
100
AcDbEntity
  8
0
  6
Continuous
 62
     7
100
AcDbCircle
 10
74.5500000000001
 20
103.4593567464948
 30
0.0
 40
0.5
100
AcDbArc
 50
180.0
 51
270.0
  0
ARC
  5
542
330
1F
100
AcDbEntity
  8
0
  6
Continuous
 62
     7
100
AcDbCircle
 10
73.5500000000001
 20
104.4593567464949
 30
0.0
 40
0.5
100
AcDbArc
 50
0.0
 51
90.0
  0
ARC
  5
543
330
1F
100
AcDbEntity
  8
0
  6
Continuous
 62
     7
100
AcDbCircle
 10
77.10000000000014
 20
99.0593567464946
 30
0.0
 40
0.5
100
AcDbArc
 50
270.0
 51
0.0
  0
ARC
  5
544
330
1F
100
AcDbEntity
  8
0
  6
Continuous
 62
     7
100
AcDbCircle
 10
71.80000000000015
 20
104.4593567464949
 30
0.0
 40
0.5
100
AcDbArc
 50
90.0
 51
180.0
  0
ARC
  5
545
330
1F
100
AcDbEntity
  8
0
  6
Continuous
 62
     7
100
AcDbCircle
 10
65.90000000000015
 20
102.4593567464948
 30
0.0
 40
0.5
100
AcDbArc
 50
90.0
 51
180.0
  0
ARC
  5
546
330
1F
100
AcDbEntity
  8
0
  6
Continuous
 62
     7
100
AcDbCircle
 10
65.95000000000013
 20
103.4593567464948
 30
0.0
 40
0.5
100
AcDbArc
 50
270.0
 51
0.0
  0
ARC
  5
547
330
1F
100
AcDbEntity
  8
0
  6
Continuous
 62
     7
100
AcDbCircle
 10
71.80000000000015
 20
99.05935674649461
 30
0.0
 40
0.5
100
AcDbArc
 50
180.0
 51
270.0
  0
ARC
  5
548
330
1F
100
AcDbEntity
  8
0
  6
Continuous
 62
     7
100
AcDbCircle
 10
66.95000000000013
 20
104.4593567464949
 30
0.0
 40
0.5
100
AcDbArc
 50
90.0
 51
180.0
  0
ARC
  5
549
330
1F
100
AcDbEntity
  8
0
  6
Continuous
 62
     7
100
AcDbCircle
 10
69.30000000000015
 20
104.4593567464949
 30
0.0
 40
0.5
100
AcDbArc
 50
0.0
 51
90.0
  0
ARC
  5
54A
330
1F
100
AcDbEntity
  8
0
  6
Continuous
 62
     7
100
AcDbCircle
 10
66.95000000000016
 20
96.00935674649463
 30
0.0
 40
0.5
100
AcDbArc
 50
270.0
 51
0.0
  0
ARC
  5
54B
330
1F
100
AcDbEntity
  8
0
  6
Continuous
 62
     7
100
AcDbCircle
 10
64.90000000000015
 20
96.00935674649463
 30
0.0
 40
0.5000000000000284
100
AcDbArc
 50
179.9999999999967
 51
270.0
  0
ARC
  5
54C
330
1F
100
AcDbEntity
  8
0
  6
Continuous
 62
     7
100
AcDbCircle
 10
69.30000000000015
 20
97.25935674649465
 30
0.0
 40
0.5000000000000142
100
AcDbArc
 50
270.0
 51
359.9999999999984
  0
ARC
  5
54D
330
1F
100
AcDbEntity
  8
0
  6
Continuous
 62
     7
100
AcDbCircle
 10
67.95000000000016
 20
96.25935674649465
 30
0.0
 40
0.4999999999999858
100
AcDbArc
 50
90.0
 51
180.0000000000016
  0
ARC
  5
54E
330
1F
100
AcDbEntity
  8
0
  6
Continuous
 62
     7
100
AcDbCircle
 10
63.19013952505443
 20
79.90935674649481
 30
0.0
 40
0.3000000000000517
100
AcDbArc
 50
194.7306766026283
 51
239.3314209686332
  0
ARC
  5
54F
330
1F
100
AcDbEntity
  8
0
  6
Continuous
 62
     7
100
AcDbCircle
 10
63.19013952505443
 20
79.90935674649481
 30
0.0
 40
0.2999999999999796
100
AcDbArc
 50
65.00000000002093
 51
165.2693233973822
  0
ARC
  5
550
330
1F
100
AcDbEntity
  8
0
  6
Continuous
 62
     7
100
AcDbCircle
 10
63.19013952505443
 20
83.00935674649483
 30
0.0
 40
0.30000000000001
100
AcDbArc
 50
120.6685790313669
 51
165.2693233973717
  0
ARC
  5
551
330
1F
100
AcDbEntity
  8
0
  6
Continuous
 62
     7
100
AcDbCircle
 10
63.19013952505443
 20
83.00935674649483
 30
0.0
 40
0.3000000000000372
100
AcDbArc
 50
194.7306766026178
 51
294.9999999999902
  0
ARC
  5
552
330
1F
100
AcDbEntity
  8
0
  6
Continuous
 62
     7
100
AcDbCircle
 10
62.99423631397175
 20
83.35935674649483
 30
0.0
 40
0.10000000000001
100
AcDbArc
 50
312.2368356759168
 51
90.0
  0
ARC
  5
553
330
1F
100
AcDbEntity
  8
0
  6
Continuous
 62
     7
100
AcDbCircle
 10
64.90000000000015
 20
84.95935674649485
 30
0.0
 40
0.5
100
AcDbArc
 50
180.0
 51
270.0
  0
ARC
  5
554
330
1F
100
AcDbEntity
  8
0
  6
Continuous
 62
     7
100
AcDbCircle
 10
64.90000000000015
 20
86.90935674649461
 30
0.0
 40
0.5
100
AcDbArc
 50
90.0
 51
180.0
  0
ARC
  5
555
330
1F
100
AcDbEntity
  8
0
  6
Continuous
 62
     7
100
AcDbCircle
 10
62.99423631397175
 20
79.55935674649481
 30
0.0
 40
0.0999999999999943
100
AcDbArc
 50
270.0
 51
47.76316432408321
  0
ARC
  5
556
330
1F
100
AcDbEntity
  8
0
  6
Continuous
 62
     7
100
AcDbCircle
 10
70.20000000000016
 20
85.65935674649464
 30
0.0
 40
0.5
100
AcDbArc
 50
0.0
 51
90.0
  0
ARC
  5
557
330
1F
100
AcDbEntity
  8
0
  6
Continuous
 62
     7
100
AcDbCircle
 10
67.95000000000019
 20
86.65935674649464
 30
0.0
 40
0.5000000000000284
100
AcDbArc
 50
180.0
 51
269.9999999999968
  0
ARC
  5
558
330
1F
100
AcDbEntity
  8
0
  6
Continuous
 62
     7
100
AcDbCircle
 10
66.95000000000019
 20
86.90935674649461
 30
0.0
 40
0.4999999999999716
100
AcDbArc
 50
0.0
 51
90.00000000000325
  0
ARC
  5
559
330
1F
100
AcDbEntity
  8
0
  6
Continuous
 62
     7
100
AcDbCircle
 10
70.20000000000016
 20
84.95935674649485
 30
0.0
 40
0.5
100
AcDbArc
 50
270.0
 51
0.0
  0
CIRCLE
  5
55A
330
1F
100
AcDbEntity
  8
0
  6
Continuous
 62
     7
100
AcDbCircle
 10
80.90000000000002
 20
238.8105516132648
 30
0.0
 40
1.300000000000068
  0
CIRCLE
  5
55B
330
1F
100
AcDbEntity
  8
0
  6
Continuous
 62
     7
100
AcDbCircle
 10
80.90000000000002
 20
238.8105516132648
 30
0.0
 40
1.549509803921495
  0
CIRCLE
  5
55C
330
1F
100
AcDbEntity
  8
0
  6
Continuous
 62
     7
100
AcDbCircle
 10
89.0000000000001
 20
217.2105516132644
 30
0.0
 40
1.549509803921524
  0
CIRCLE
  5
55D
330
1F
100
AcDbEntity
  8
0
  6
Continuous
 62
     7
100
AcDbCircle
 10
93.5000000000002
 20
218.0105516132643
 30
0.0
 40
2.350000000000009
  0
CIRCLE
  5
55E
330
1F
100
AcDbEntity
  8
0
  6
Continuous
 62
     7
100
AcDbCircle
 10
76.40000000000012
 20
238.0105516132647
 30
0.0
 40
1.299999999999983
  0
CIRCLE
  5
55F
330
1F
100
AcDbEntity
  8
0
  6
Continuous
 62
     7
100
AcDbCircle
 10
76.40000000000012
 20
238.0105516132647
 30
0.0
 40
1.524999999999977
  0
CIRCLE
  5
560
330
1F
100
AcDbEntity
  8
0
  6
Continuous
 62
     7
100
AcDbCircle
 10
71.90000000000005
 20
238.8105516132648
 30
0.0
 40
1.549509803921495
  0
CIRCLE
  5
561
330
1F
100
AcDbEntity
  8
0
  6
Continuous
 62
     7
100
AcDbCircle
 10
71.90000000000005
 20
238.8105516132648
 30
0.0
 40
1.300000000000011
  0
CIRCLE
  5
562
330
1F
100
AcDbEntity
  8
0
  6
Continuous
 62
     7
100
AcDbCircle
 10
76.40000000000012
 20
238.0105516132647
 30
0.0
 40
2.350000000000023
  0
CIRCLE
  5
563
330
1F
100
AcDbEntity
  8
0
  6
Continuous
 62
     7
100
AcDbCircle
 10
102.5000000000002
 20
218.0105516132643
 30
0.0
 40
1.299999999999983
  0
CIRCLE
  5
564
330
1F
100
AcDbEntity
  8
0
  6
Continuous
 62
     7
100
AcDbCircle
 10
102.5000000000002
 20
218.0105516132643
 30
0.0
 40
1.524999999999892
  0
CIRCLE
  5
565
330
1F
100
AcDbEntity
  8
0
  6
Continuous
 62
     7
100
AcDbCircle
 10
93.5000000000002
 20
218.0105516132643
 30
0.0
 40
1.299999999999983
  0
CIRCLE
  5
566
330
1F
100
AcDbEntity
  8
0
  6
Continuous
 62
     7
100
AcDbCircle
 10
98.00000000000004
 20
217.2105516132644
 30
0.0
 40
1.300000000000068
  0
CIRCLE
  5
567
330
1F
100
AcDbEntity
  8
0
  6
Continuous
 62
     7
100
AcDbCircle
 10
89.0000000000001
 20
217.2105516132644
 30
0.0
 40
1.300000000000011
  0
CIRCLE
  5
568
330
1F
100
AcDbEntity
  8
0
  6
Continuous
 62
     7
100
AcDbCircle
 10
98.00000000000004
 20
217.2105516132644
 30
0.0
 40
1.549509803921524
  0
CIRCLE
  5
569
330
1F
100
AcDbEntity
  8
0
  6
Continuous
 62
     7
100
AcDbCircle
 10
93.5000000000002
 20
218.0105516132643
 30
0.0
 40
1.524999999999892
  0
CIRCLE
  5
56A
330
1F
100
AcDbEntity
  8
0
  6
Continuous
 62
     7
100
AcDbCircle
 10
67.40000000000012
 20
238.0105516132647
 30
0.0
 40
1.299999999999983
  0
CIRCLE
  5
56B
330
1F
100
AcDbEntity
  8
0
  6
Continuous
 62
     7
100
AcDbCircle
 10
67.40000000000012
 20
238.0105516132647
 30
0.0
 40
1.524999999999977
  0
CIRCLE
  5
56C
330
1F
100
AcDbEntity
  8
0
  6
Continuous
 62
     7
100
AcDbCircle
 10
67.40000000000012
 20
238.0105516132647
 30
0.0
 40
2.350000000000023
  0
CIRCLE
  5
56D
330
1F
100
AcDbEntity
  8
0
  6
Continuous
 62
     7
100
AcDbCircle
 10
102.5000000000002
 20
218.0105516132643
 30
0.0
 40
2.349999999999994
  0
CIRCLE
  5
56E
330
1F
100
AcDbEntity
  8
0
  6
Continuous
 62
     7
100
AcDbCircle
 10
67.40000000000012
 20
81.45935674649473
 30
0.0
 40
1.592893218813558
  0
CIRCLE
  5
56F
330
1F
100
AcDbEntity
  8
0
  6
Continuous
 62
     7
100
AcDbCircle
 10
80.90000000000012
 20
80.65935674649455
 30
0.0
 40
1.950000000000003
  0
CIRCLE
  5
570
330
1F
100
AcDbEntity
  8
0
  6
Continuous
 62
     7
100
AcDbCircle
 10
71.90000000000009
 20
80.65935674649448
 30
0.0
 40
1.300000000000068
  0
CIRCLE
  5
571
330
1F
100
AcDbEntity
  8
0
  6
Continuous
 62
     7
100
AcDbCircle
 10
71.90000000000009
 20
80.65935674649448
 30
0.0
 40
1.592893218813515
  0
CIRCLE
  5
572
330
1F
100
AcDbEntity
  8
0
  6
Continuous
 62
     7
100
AcDbCircle
 10
71.90000000000009
 20
80.65935674649448
 30
0.0
 40
1.624999999999972
  0
CIRCLE
  5
573
330
1F
100
AcDbEntity
  8
0
  6
Continuous
 62
     7
100
AcDbCircle
 10
71.90000000000009
 20
80.65935674649448
 30
0.0
 40
1.648113207547112
  0
CIRCLE
  5
574
330
1F
100
AcDbEntity
  8
0
  6
Continuous
 62
     7
100
AcDbCircle
 10
76.40000000000012
 20
81.45935674649473
 30
0.0
 40
1.300000000000068
  0
CIRCLE
  5
575
330
1F
100
AcDbEntity
  8
0
  6
Continuous
 62
     7
100
AcDbCircle
 10
76.40000000000012
 20
81.45935674649473
 30
0.0
 40
1.592893218813558
  0
CIRCLE
  5
576
330
1F
100
AcDbEntity
  8
0
  6
Continuous
 62
     7
100
AcDbCircle
 10
76.40000000000012
 20
81.45935674649473
 30
0.0
 40
1.625000000000028
  0
CIRCLE
  5
577
330
1F
100
AcDbEntity
  8
0
  6
Continuous
 62
     7
100
AcDbCircle
 10
76.40000000000012
 20
81.45935674649473
 30
0.0
 40
1.94999999999996
  0
CIRCLE
  5
578
330
1F
100
AcDbEntity
  8
0
  6
Continuous
 62
     7
100
AcDbCircle
 10
71.90000000000009
 20
80.65935674649448
 30
0.0
 40
1.949999999999918
  0
CIRCLE
  5
579
330
1F
100
AcDbEntity
  8
0
  6
Continuous
 62
     7
100
AcDbCircle
 10
76.40000000000012
 20
81.45935674649473
 30
0.0
 40
1.648113207547169
  0
CIRCLE
  5
57A
330
1F
100
AcDbEntity
  8
0
  6
Continuous
 62
     7
100
AcDbCircle
 10
80.90000000000012
 20
80.65935674649455
 30
0.0
 40
1.300000000000153
  0
CIRCLE
  5
57B
330
1F
100
AcDbEntity
  8
0
  6
Continuous
 62
     7
100
AcDbCircle
 10
80.90000000000012
 20
80.65935674649455
 30
0.0
 40
1.5928932188136
  0
CIRCLE
  5
57C
330
1F
100
AcDbEntity
  8
0
  6
Continuous
 62
     7
100
AcDbCircle
 10
80.90000000000012
 20
80.65935674649455
 30
0.0
 40
1.625000000000057
  0
CIRCLE
  5
57D
330
1F
100
AcDbEntity
  8
0
  6
Continuous
 62
     7
100
AcDbCircle
 10
80.90000000000012
 20
80.65935674649455
 30
0.0
 40
1.648113207547198
  0
CIRCLE
  5
57E
330
1F
100
AcDbEntity
  8
0
  6
Continuous
 62
     7
100
AcDbCircle
 10
102.5000000000002
 20
101.4593567464952
 30
0.0
 40
1.300000000000097
  0
CIRCLE
  5
57F
330
1F
100
AcDbEntity
  8
0
  6
Continuous
 62
     7
100
AcDbCircle
 10
102.5000000000002
 20
101.4593567464952
 30
0.0
 40
1.592893218813558
  0
CIRCLE
  5
580
330
1F
100
AcDbEntity
  8
0
  6
Continuous
 62
     7
100
AcDbCircle
 10
98.00000000000014
 20
102.2593567464949
 30
0.0
 40
1.300000000000097
  0
CIRCLE
  5
581
330
1F
100
AcDbEntity
  8
0
  6
Continuous
 62
     7
100
AcDbCircle
 10
98.00000000000014
 20
102.2593567464949
 30
0.0
 40
1.592893218813501
  0
CIRCLE
  5
582
330
1F
100
AcDbEntity
  8
0
  6
Continuous
 62
     7
100
AcDbCircle
 10
98.00000000000014
 20
102.2593567464949
 30
0.0
 40
1.625
  0
CIRCLE
  5
583
330
1F
100
AcDbEntity
  8
0
  6
Continuous
 62
     7
100
AcDbCircle
 10
93.5000000000002
 20
101.4593567464952
 30
0.0
 40
1.625000000000043
  0
CIRCLE
  5
584
330
1F
100
AcDbEntity
  8
0
  6
Continuous
 62
     7
100
AcDbCircle
 10
93.5000000000002
 20
101.4593567464952
 30
0.0
 40
1.300000000000097
  0
CIRCLE
  5
585
330
1F
100
AcDbEntity
  8
0
  6
Continuous
 62
     7
100
AcDbCircle
 10
93.5000000000002
 20
101.4593567464952
 30
0.0
 40
1.592893218813572
  0
CIRCLE
  5
586
330
1F
100
AcDbEntity
  8
0
  6
Continuous
 62
     7
100
AcDbCircle
 10
93.5000000000002
 20
101.4593567464952
 30
0.0
 40
1.950000000000003
  0
CIRCLE
  5
587
330
1F
100
AcDbEntity
  8
0
  6
Continuous
 62
     7
100
AcDbCircle
 10
89.00000000000014
 20
102.2593567464949
 30
0.0
 40
1.300000000000097
  0
CIRCLE
  5
588
330
1F
100
AcDbEntity
  8
0
  6
Continuous
 62
     7
100
AcDbCircle
 10
89.00000000000014
 20
102.2593567464949
 30
0.0
 40
1.5928932188136
  0
CIRCLE
  5
589
330
1F
100
AcDbEntity
  8
0
  6
Continuous
 62
     7
100
AcDbCircle
 10
89.00000000000014
 20
102.2593567464949
 30
0.0
 40
1.950000000000003
  0
CIRCLE
  5
58A
330
1F
100
AcDbEntity
  8
0
  6
Continuous
 62
     7
100
AcDbCircle
 10
98.00000000000014
 20
102.2593567464949
 30
0.0
 40
1.949999999999903
  0
CIRCLE
  5
58B
330
1F
100
AcDbEntity
  8
0
  6
Continuous
 62
     7
100
AcDbCircle
 10
102.5000000000002
 20
101.4593567464952
 30
0.0
 40
1.949999999999974
  0
CIRCLE
  5
58C
330
1F
100
AcDbEntity
  8
0
  6
Continuous
 62
     7
100
AcDbCircle
 10
89.00000000000014
 20
102.2593567464949
 30
0.0
 40
1.625
  0
CIRCLE
  5
58D
330
1F
100
AcDbEntity
  8
0
  6
Continuous
 62
     7
100
AcDbCircle
 10
102.5000000000002
 20
101.4593567464952
 30
0.0
 40
1.625000000000028
  0
CIRCLE
  5
58E
330
1F
100
AcDbEntity
  8
0
  6
Continuous
 62
     7
100
AcDbCircle
 10
98.00000000000014
 20
102.2593567464949
 30
0.0
 40
1.648113207547098
  0
CIRCLE
  5
58F
330
1F
100
AcDbEntity
  8
0
  6
Continuous
 62
     7
100
AcDbCircle
 10
89.00000000000014
 20
102.2593567464949
 30
0.0
 40
1.648113207547098
  0
CIRCLE
  5
590
330
1F
100
AcDbEntity
  8
0
  6
Continuous
 62
     7
100
AcDbCircle
 10
93.5000000000002
 20
101.4593567464952
 30
0.0
 40
1.648113207547183
  0
CIRCLE
  5
591
330
1F
100
AcDbEntity
  8
0
  6
Continuous
 62
     7
100
AcDbCircle
 10
102.5000000000002
 20
101.4593567464952
 30
0.0
 40
1.648113207547155
  0
CIRCLE
  5
592
330
1F
100
AcDbEntity
  8
0
  6
Continuous
 62
     7
100
AcDbCircle
 10
67.40000000000012
 20
81.45935674649473
 30
0.0
 40
1.30000000000004
  0
CIRCLE
  5
593
330
1F
100
AcDbEntity
  8
0
  6
Continuous
 62
     7
100
AcDbCircle
 10
67.40000000000012
 20
81.45935674649473
 30
0.0
 40
1.625000000000014
  0
CIRCLE
  5
594
330
1F
100
AcDbEntity
  8
0
  6
Continuous
 62
     7
100
AcDbCircle
 10
67.40000000000012
 20
81.45935674649473
 30
0.0
 40
1.648113207547141
  0
CIRCLE
  5
595
330
1F
100
AcDbEntity
  8
0
  6
Continuous
 62
     7
100
AcDbCircle
 10
67.40000000000012
 20
81.45935674649473
 30
0.0
 40
1.94999999999996
  0
ARC
  5
596
102
{ACAD_REACTORS
330
5E2
102
}
330
1F
100
AcDbEntity
  8
1
  6
Continuous
 62
     7
100
AcDbCircle
 10
194.3429673554094
 20
10.07749983983263
 30
0.0
 40
0.3333333333332007
100
AcDbArc
 50
180.0
 51
299.981639368863
  0
ARC
  5
597
102
{ACAD_REACTORS
330
5E2
102
}
330
1F
100
AcDbEntity
  8
1
  6
Continuous
 62
     7
100
AcDbCircle
 10
194.3429673554094
 20
14.92250016016737
 30
0.0
 40
0.3333333333334166
100
AcDbArc
 50
60.01836063113698
 51
180.0
  0
ARC
  5
598
330
1F
100
AcDbEntity
  8
1
  6
Continuous
 62
     7
100
AcDbCircle
 10
200.0094488883027
 20
12.5
 30
0.0
 40
0.166666666666687
100
AcDbArc
 50
299.9816393688503
 51
60.01836063112923
  0
ARC
  5
599
330
1F
100
AcDbEntity
  8
1
  6
Continuous
 62
     7
100
AcDbCircle
 10
183.3431524891829
 20
12.5
 30
0.0
 40
0.1666666666666265
100
AcDbArc
 50
119.9816393688962
 51
240.0183606311243
  0
ARC
  5
59A
102
{ACAD_REACTORS
330
5E4
102
}
330
1F
100
AcDbEntity
  8
1
  6
Continuous
 62
     7
100
AcDbCircle
 10
189.3429673554094
 20
10.2700211480327
 30
0.0
 40
0.6666666666666003
100
AcDbArc
 50
180.0000000000104
 51
240.0183606311601
  0
ARC
  5
59B
102
{ACAD_REACTORS
330
5E1
102
}
330
1F
100
AcDbEntity
  8
1
  6
Continuous
 62
     7
100
AcDbCircle
 10
191.6763006887428
 20
12.83333333333326
 30
0.0
 40
0.166666666666709
100
AcDbArc
 50
209.9999999999622
 51
330.0000000000231
  0
ARC
  5
59C
330
1F
100
AcDbEntity
  8
1
  6
Continuous
 62
     4
100
AcDbCircle
 10
82.32508974489858
 20
165.5007082302076
 30
0.0
 40
0.0490206755351931
100
AcDbArc
 50
29.98163936861029
 51
150.0183606311551
  0
ARC
  5
59D
330
1F
100
AcDbEntity
  8
1
  6
Continuous
 62
     4
100
AcDbCircle
 10
82.32508974489858
 20
160.598749581278
 30
0.0
 40
0.0490206755353569
100
AcDbArc
 50
209.9816393690751
 51
330.0183606311595
  0
MTEXT
  5
59F
330
1F
100
AcDbEntity
  8
1
 62
     7
100
AcDbMText
 10
57.28000000000011
 20
12.5
 30
0.0
 40
4.5
 41
0.0
 71
     4
 72
     1
  1
CX 02 JM\Pmale modular 2xRJ45 + 8P 10A 250V
  7
CONVERTER_11
 73
     1
 44
0.90036014405762
  0
MTEXT
  5
5A1
330
1F
100
AcDbEntity
  8
1
 62
     7
100
AcDbMText
 10
67.45000000000019
 20
234.5105516132649
 30
0.0
 40
1.5
 41
0.0
 71
     5
 72
     1
  1
8
  7
CONVERTER_12
 73
     1
 44
1.32052821128451
  0
MTEXT
  5
5A2
330
1F
100
AcDbEntity
  8
1
 62
     7
100
AcDbMText
 10
71.95000000000019
 20
234.5105516132649
 30
0.0
 40
1.5
 41
0.0
 71
     5
 72
     1
  1
7
  7
CONVERTER_12
 73
     1
 44
1.32052821128451
  0
MTEXT
  5
5A3
330
1F
100
AcDbEntity
  8
1
 62
     7
100
AcDbMText
 10
76.45000000000019
 20
234.5105516132649
 30
0.0
 40
1.5
 41
0.0
 71
     5
 72
     1
  1
6
  7
CONVERTER_12
 73
     1
 44
1.32052821128451
  0
MTEXT
  5
5A4
330
1F
100
AcDbEntity
  8
1
 62
     7
100
AcDbMText
 10
80.90000000000012
 20
234.5105516132649
 30
0.0
 40
1.5
 41
0.0
 71
     5
 72
     1
  1
5
  7
CONVERTER_12
 73
     1
 44
1.32052821128451
  0
MTEXT
  5
5A5
330
1F
100
AcDbEntity
  8
1
 62
     7
100
AcDbMText
 10
102.4500000000001
 20
221.5105516132644
 30
0.0
 40
1.5
 41
0.0
 71
     5
 72
     1
  1
1
  7
CONVERTER_12
 73
     1
 44
1.32052821128451
  0
MTEXT
  5
5A6
330
1F
100
AcDbEntity
  8
1
 62
     7
100
AcDbMText
 10
89.00000000000014
 20
221.5105516132644
 30
0.0
 40
1.5
 41
0.0
 71
     5
 72
     1
  1
4
  7
CONVERTER_12
 73
     1
 44
1.32052821128451
  0
MTEXT
  5
5A7
330
1F
100
AcDbEntity
  8
1
 62
     7
100
AcDbMText
 10
93.50000000000014
 20
221.5105516132644
 30
0.0
 40
1.5
 41
0.0
 71
     5
 72
     1
  1
3
  7
CONVERTER_12
 73
     1
 44
1.32052821128451
  0
MTEXT
  5
5A8
330
1F
100
AcDbEntity
  8
1
 62
     7
100
AcDbMText
 10
98.00000000000009
 20
221.5105516132644
 30
0.0
 40
1.5
 41
0.0
 71
     5
 72
     1
  1
2
  7
CONVERTER_12
 73
     1
 44
1.32052821128451
  0
MTEXT
  5
5A9
330
1F
100
AcDbEntity
  8
1
 62
     7
100
AcDbMText
 10
66.15000000000015
 20
91.85935674649465
 30
0.0
 40
2.0
 41
0.0
 71
     5
 72
     1
  1
B
  7
CONVERTER_12
 73
     1
 44
1.32052821128451
  0
MTEXT
  5
5AA
330
1F
100
AcDbEntity
  8
1
 62
     7
100
AcDbMText
 10
103.7500000000002
 20
91.05935674649498
 30
0.0
 40
2.0
 41
0.0
 71
     5
 72
     1
  1
A
  7
CONVERTER_12
 73
     1
 44
1.32052821128451
  0
MTEXT
  5
5AB
330
1F
100
AcDbEntity
  8
1
 62
     7
100
AcDbMText
 10
95.4500000000001
 20
235.3605516132644
 30
0.0
 40
2.0
 41
0.0
 71
     5
 72
     1
  1
A
  7
CONVERTER_12
 73
     1
 44
1.32052821128451
  0
MTEXT
  5
5AC
330
1F
100
AcDbEntity
  8
1
 62
     7
100
AcDbMText
 10
74.4500000000001
 20
220.6605516132648
 30
0.0
 40
2.0
 41
0.0
 71
     5
 72
     1
  1
B
  7
CONVERTER_12
 73
     1
 44
1.32052821128451
  0
MTEXT
  5
5AD
330
1F
100
AcDbEntity
  8
1
 62
     7
100
AcDbMText
 10
87.57491025510168
 20
163.0497289057428
 30
0.0
 40
2.0
 41
0.0
 71
     5
 72
     1
  1
CX 02  M
  7
CONVERTER_12
 11
6.123232939436859E-17
 21
1.0
 31
0.0
 73
     1
 44
1.32052821128451
  0
MTEXT
  5
5AF
330
1F
100
AcDbEntity
  8
1
 62
     7
100
AcDbMText
 10
97.02508974489868
 20
163.0497289057428
 30
0.0
 40
1.4
 41
0.0
 71
     5
 72
     1
  1
10A 250V 4kV 3
  7
CONVERTER_13
 11
0.0
 21
1.0
 31
0.0
 73
     1
 44
1.32052821128451
  0
MTEXT
  5
5B0
330
1F
100
AcDbEntity
  8
1
 62
     7
100
AcDbMText
 10
87.57491025510168
 20
166.7081427545624
 30
0.0
 40
2.0
 41
0.0
 71
     5
 72
     1
  1
J
  7
CONVERTER_12
 11
6.123232939436859E-17
 21
1.0
 31
0.0
 73
     1
 44
1.32052821128451
  0
MTEXT
  5
5B1
330
1F
100
AcDbEntity
  8
1
 62
     7
100
AcDbMText
 10
104.0
 20
104.3593567464949
 30
0.0
 40
1.5
 41
0.0
 71
     5
 72
     1
  1
1
  7
CONVERTER_12
 73
     1
 44
1.32052821128451
  0
MTEXT
  5
5B2
330
1F
100
AcDbEntity
  8
1
 62
     7
100
AcDbMText
 10
100.3500000000001
 20
104.3593567464949
 30
0.0
 40
1.5
 41
0.0
 71
     5
 72
     1
  1
2
  7
CONVERTER_12
 73
     1
 44
1.32052821128451
  0
MTEXT
  5
5B3
330
1F
100
AcDbEntity
  8
1
 62
     7
100
AcDbMText
 10
95.5500000000001
 20
104.3593567464949
 30
0.0
 40
1.5
 41
0.0
 71
     5
 72
     1
  1
3
  7
CONVERTER_12
 73
     1
 44
1.32052821128451
  0
MTEXT
  5
5B4
330
1F
100
AcDbEntity
  8
1
 62
     7
100
AcDbMText
 10
86.45000000000007
 20
104.3593567464949
 30
0.0
 40
1.5
 41
0.0
 71
     5
 72
     1
  1
4
  7
CONVERTER_12
 73
     1
 44
1.32052821128451
  0
MTEXT
  5
5B5
330
1F
100
AcDbEntity
  8
1
 62
     7
100
AcDbMText
 10
83.45000000000007
 20
78.55935674649467
 30
0.0
 40
1.5
 41
0.0
 71
     5
 72
     1
  1
5
  7
CONVERTER_12
 73
     1
 44
1.32052821128451
  0
MTEXT
  5
5B6
330
1F
100
AcDbEntity
  8
1
 62
     7
100
AcDbMText
 10
74.40000000000012
 20
78.55935674649467
 30
0.0
 40
1.5
 41
0.0
 71
     5
 72
     1
  1
6
  7
CONVERTER_12
 73
     1
 44
1.32052821128451
  0
MTEXT
  5
5B7
330
1F
100
AcDbEntity
  8
1
 62
     7
100
AcDbMText
 10
69.90000000000012
 20
78.55935674649467
 30
0.0
 40
1.5
 41
0.0
 71
     5
 72
     1
  1
7
  7
CONVERTER_12
 73
     1
 44
1.32052821128451
  0
MTEXT
  5
5B8
330
1F
100
AcDbEntity
  8
1
 62
     7
100
AcDbMText
 10
65.90000000000012
 20
78.55935674649467
 30
0.0
 40
1.5
 41
0.0
 71
     5
 72
     1
  1
8
  7
CONVERTER_12
 73
     1
 44
1.32052821128451
  0
MTEXT
  5
5B9
330
1F
100
AcDbEntity
  8
1
 62
     7
100
AcDbMText
 10
16.0
 20
151.4999999999998
 30
0.0
 40
4.0
 41
0.0
 71
     5
 72
     1
  1
Diritti riservati      All rights reserved
  7
CONVERTER_11
 11
0.0
 21
1.0
 31
0.0
 73
     1
 44
1.32052821128451
  0
MTEXT
  5
5BA
330
1F
100
AcDbEntity
  8
1
 62
     7
100
AcDbMText
 10
23.00000000000011
 20
16.260639420756
 30
0.0
 40
3.0
 41
0.0
 71
     4
 72
     1
  1
Date
  7
CONVERTER_11
 73
     1
 44
1.32052821128451
  0
MTEXT
  5
5BB
330
1F
100
AcDbEntity
  8
1
 62
     7
100
AcDbMText
 10
33.60000000000011
 20
16.260639420756
 30
0.0
 40
3.0
 41
0.0
 71
     4
 72
     1
  1
06/11/06
  7
CONVERTER_11
 73
     1
 44
1.32052821128451
  0
MTEXT
  5
5BC
330
1F
100
AcDbEntity
  8
1
 62
     7
100
AcDbMText
 10
23.00000000000011
 20
8.75000000000001
 30
0.0
 40
3.0
 41
0.0
 71
     4
 72
     1
  1
Sign.
  7
CONVERTER_11
 73
     1
 44
1.32052821128451
  0
MTEXT
  5
5BD
330
1F
100
AcDbEntity
  8
1
 62
     7
100
AcDbMText
 10
33.60000000000011
 20
8.75000000000001
 30
0.0
 40
3.0
 41
0.0
 71
     4
 72
     1
  1
T.Tedeschi
  7
CONVERTER_11
 73
     1
 44
1.32052821128451
  0
MTEXT
  5
5BE
330
1F
100
AcDbEntity
  8
1
 62
     7
100
AcDbMText
 10
169.6763006887428
 20
16.260639420756
 30
0.0
 40
3.0
 41
0.0
 71
     5
 72
     1
  1
Scale
  7
CONVERTER_11
 73
     1
 44
1.32052821128451
  0
MTEXT
  5
5BF
330
1F
100
AcDbEntity
  8
1
 62
     7
100
AcDbMText
 10
169.6763006887428
 20
10.06063942075605
 30
0.0
 40
4.5
 41
0.0
 71
     5
 72
     1
  1
1:1
  7
CONVERTER_11
 73
     1
 44
1.32052821128451
  0
DIMENSION
  5
5CA
330
1F
100
AcDbEntity
  8
1
100
AcDbDimension
  2
*D1
 10
179.994540978616
 20
174.2997289057429
 30
0.0
 11
176.344540978616
 21
157.5497289057427
 31
0.0
 70
    32
  1
<>
 71
     5
 42
-1.0
 53
90.0
  3
ME10_DIM_10
100
AcDbAlignedDimension
 13
165.9000000000001
 23
140.7997289057426
 33
0.0
 14
167.9000000000001
 24
174.2997289057427
 34
0.0
 50
90.0
100
AcDbRotatedDimension
  0
DIMENSION
  5
5D5
330
1F
100
AcDbEntity
  8
1
100
AcDbDimension
  2
*D2
 10
135.9
 20
185.131527014503
 30
0.0
 11
150.9000000000001
 21
188.631527014503
 31
0.0
 70
    32
  1
<>
 71
     5
 42
-1.0
 53
0.00013888888889
  3
ME10_DIM_11
100
AcDbAlignedDimension
 13
165.9000000000002
 23
174.2997289057427
 33
0.0
 14
135.9
 24
174.2997289057427
 34
0.0
100
AcDbRotatedDimension
  0
DIMENSION
  5
5E0
330
1F
100
AcDbEntity
  8
1
100
AcDbDimension
  2
*D3
 10
107.0000000000002
 20
185.153826783624
 30
0.0
 11
84.95000000000016
 21
188.803826783624
 31
0.0
 70
    32
  1
<>
 71
     5
 42
-1.0
 53
0.00013888888889
  3
ME10_DIM_12
100
AcDbAlignedDimension
 13
62.90000000000012
 23
174.2997289057427
 33
0.0
 14
107.0000000000002
 24
174.2997289057427
 34
0.0
100
AcDbRotatedDimension
  0
HATCH
  5
5E1
330
1F
100
AcDbEntity
  8
1
  6
Continuous
 62
     7
100
AcDbHatch
 10
0.0
 20
0.0
 30
0.0
210
0.0
220
0.0
230
1.0
  2
SOLID
 70
     1
 71
     1
 91
        1
 92
        1
 93
       16
 72
     2
 10
190.2746002345514
 20
15.73121731203457
 40
0.2649662124752854
 50
30.00000000001921
 51
180.0
 73
     1
 72
     1
 10
190.0096340220761
 20
15.73121731203457
 11
190.0096340220761
 21
12.5
 72
     1
 10
190.0096340220761
 20
12.5
 11
190.0096340220761
 21
10.84758507263291
 72
     2
 10
190.3429673554094
 20
10.84758507263291
 40
0.333333333333286
 50
180.0
 51
360.0
 73
     1
 72
     1
 10
190.6763006887428
 20
10.84758507263291
 11
190.6763006887428
 21
12.5
 72
     1
 10
190.6763006887428
 20
12.5
 11
190.6763006887428
 21
14.23205080756884
 72
     1
 10
190.6763006887428
 20
14.23205080756884
 11
191.5319631214453
 21
12.75
 72
     2
 10
191.6763006887428
 20
12.83333333333326
 40
0.166666666666709
 50
209.9999999999622
 51
330.0000000000231
 73
     1
 72
     1
 10
191.8206382560402
 20
12.75
 11
192.6763006887428
 21
14.23205080756884
 72
     1
 10
192.6763006887428
 20
14.23205080756884
 11
192.6763006887428
 21
12.5
 72
     1
 10
192.6763006887428
 20
12.5
 11
192.6763006887428
 21
9.308269070601796
 72
     2
 10
193.0096340220762
 20
9.308269070601796
 40
0.3333333333333997
 50
180.0
 51
360.0
 73
     1
 72
     1
 10
193.3429673554094
 20
9.308269070601796
 11
193.3429673554094
 21
15.73121731203457
 72
     2
 10
193.0780011429341
 20
15.73121731203457
 40
0.2649662124752865
 50
0.0
 51
149.9999999999716
 73
     1
 72
     1
 10
192.8485336717861
 20
15.86370041827229
 11
191.6763006887428
 21
13.83333333333326
 72
     1
 10
191.6763006887428
 20
13.83333333333326
 11
190.5040677056995
 21
15.86370041827229
 97
       16
330
5B
330
4BB
330
5C
330
4BC
330
5D
330
69
330
68
330
59B
330
67
330
66
330
5E
330
4BD
330
5F
330
61
330
4BE
330
60
 75
     0
 76
     1
 98
        1
 10
0.0
 20
0.0
  0
HATCH
  5
5E2
330
1F
100
AcDbEntity
  8
1
  6
Continuous
 62
     7
100
AcDbHatch
 10
0.0
 20
0.0
 30
0.0
210
0.0
220
0.0
230
1.0
  2
SOLID
 70
     1
 71
     1
 91
        1
 92
        1
 93
       14
 72
     1
 10
194.5095415065727
 20
15.21122868885027
 11
195.8428748399059
 21
14.44199791961944
 72
     2
 10
195.6763006887428
 20
14.15326939093666
 40
0.3333333333333613
 50
299.9816393688436
 51
479.9816393688459
 73
     0
 72
     1
 10
195.5097265375796
 20
13.86454086225376
 11
194.6763006887428
 21
14.34536346735195
 72
     1
 10
194.6763006887428
 20
14.34536346735195
 11
194.6763006887428
 21
12.83333333333326
 72
     1
 10
194.6763006887428
 20
12.83333333333326
 11
195.6763006887428
 21
12.83333333333326
 72
     2
 10
195.6763006887428
 20
12.5
 40
0.3333333333333695
 50
270.0
 51
450.0
 73
     0
 72
     1
 10
195.6763006887428
 20
12.16666666666663
 11
194.6763006887428
 21
12.16666666666663
 72
     1
 10
194.6763006887428
 20
12.16666666666663
 11
194.6763006887428
 21
10.65463653264794
 72
     1
 10
194.6763006887428
 20
10.65463653264794
 11
195.5097265375796
 21
11.13545913774624
 72
     2
 10
195.6763006887428
 20
10.84673060906323
 40
0.3333333333333172
 50
240.0183606311635
 51
420.0183606311665
 73
     0
 72
     1
 10
195.8428748399059
 20
10.55800208038033
 11
194.5095415065727
 21
9.78877131114973
 72
     2
 10
194.3429673554094
 20
10.07749983983263
 40
0.3333333333332007
 50
60.01836063113696
 51
180.0
 73
     0
 72
     1
 10
194.0096340220762
 20
10.07749983983263
 11
194.0096340220762
 21
14.92250016016737
 72
     2
 10
194.3429673554094
 20
14.92250016016737
 40
0.3333333333334166
 50
180.0
 51
299.981639368863
 73
     0
 97
       14
330
53
330
4B6
330
52
330
51
330
50
330
4B5
330
4F
330
4E
330
4D
330
4B4
330
4C
330
596
330
4B
330
597
 75
     0
 76
     1
 98
        1
 10
0.0
 20
0.0
  0
HATCH
  5
5E3
330
1F
100
AcDbEntity
  8
1
  6
Continuous
 62
     7
100
AcDbHatch
 10
0.0
 20
0.0
 30
0.0
210
0.0
220
0.0
230
1.0
  2
SOLID
 70
     1
 71
     1
 91
        1
 92
        1
 93
        5
 72
     1
 10
188.0096340220761
 20
14.15326939093666
 11
188.0096340220761
 21
11.0392519172633
 72
     1
 10
188.0096340220761
 20
11.0392519172633
 11
188.0096340220761
 21
10.84673060906323
 72
     2
 10
187.6763006887428
 20
10.84673060906323
 40
0.3333333333333997
 50
0.0
 51
180.0
 73
     0
 72
     1
 10
187.3429673554094
 20
10.84673060906323
 11
187.3429673554094
 21
14.15326939093666
 72
     2
 10
187.6763006887428
 20
14.15326939093666
 40
0.3333333333333144
 50
180.0
 51
360.0
 73
     0
 97
        5
330
56
330
55
330
4B7
330
54
330
4B8
 75
     0
 76
     1
 98
        1
 10
0.0
 20
0.0
  0
HATCH
  5
5E4
330
1F
100
AcDbEntity
  8
1
  6
Continuous
 62
     7
100
AcDbHatch
 10
0.0
 20
0.0
 30
0.0
210
0.0
220
0.0
230
1.0
  2
SOLID
 70
     1
 71
     1
 91
        1
 92
        1
 93
        7
 72
     1
 10
189.3429673554094
 20
14.92250016016737
 11
189.3429673554094
 21
10.2700211480327
 72
     1
 10
189.3429673554094
 20
10.2700211480327
 11
191.5095415065727
 21
9.020074522361597
 72
     2
 10
191.3429673554094
 20
8.731345993678701
 40
0.3333333333333567
 50
299.9816393688633
 51
479.9816393688463
 73
     0
 72
     1
 10
191.1763932042462
 20
8.442617464995806
 11
189.0098190530831
 21
9.692564090666906
 72
     2
 10
189.3429673554094
 20
10.2700211480327
 40
0.6666666666666003
 50
119.9816393688399
 51
179.9999999999896
 73
     0
 72
     1
 10
188.6763006887428
 20
10.27002114803258
 11
188.6763006887428
 21
14.92250016016737
 72
     2
 10
189.0096340220761
 20
14.92250016016737
 40
0.333333333333286
 50
180.0
 51
360.0
 73
     0
 97
        7
330
59
330
58
330
4B9
330
57
330
59A
330
5A
330
4BA
 75
     0
 76
     1
 98
        1
 10
0.0
 20
0.0
  0
HATCH
  5
5E5
330
1F
100
AcDbEntity
  8
1
  6
Continuous
 62
     2
100
AcDbHatch
 10
0.0
 20
0.0
 30
0.0
210
0.0
220
0.0
230
1.0
  2
SOLID
 70
     1
 71
     1
 91
        1
 92
        1
 93
        3
 72
     1
 10
98.9000000000002
 20
76.95935674649505
 11
100.4000000000002
 21
76.95935674649505
 72
     1
 10
100.4000000000002
 20
76.95935674649505
 11
99.6500000000002
 21
74.95935674649505
 72
     1
 10
99.6500000000002
 20
74.95935674649505
 11
98.9000000000002
 21
76.95935674649505
 97
        3
330
EB
330
ED
330
EC
 75
     0
 76
     1
 98
        1
 10
0.0
 20
0.0
  0
HATCH
  5
5E6
330
1F
100
AcDbEntity
  8
1
  6
Continuous
 62
     2
100
AcDbHatch
 10
0.0
 20
0.0
 30
0.0
210
0.0
220
0.0
230
1.0
  2
SOLID
 70
     1
 71
     1
 91
        1
 92
        1
 93
        3
 72
     1
 10
69.49999999999997
 20
76.95935674649505
 11
70.99999999999997
 21
76.95935674649505
 72
     1
 10
70.99999999999997
 20
76.95935674649505
 11
70.24999999999997
 21
74.95935674649505
 72
     1
 10
70.24999999999997
 20
74.95935674649505
 11
69.49999999999997
 21
76.95935674649505
 97
        3
330
E5
330
E7
330
E6
 75
     0
 76
     1
 98
        1
 10
0.0
 20
0.0
  0
HATCH
  5
5E7
330
1F
100
AcDbEntity
  8
1
  6
Continuous
 62
     2
100
AcDbHatch
 10
0.0
 20
0.0
 30
0.0
210
0.0
220
0.0
230
1.0
  2
SOLID
 70
     1
 71
     1
 91
        1
 92
        1
 93
        3
 72
     1
 10
84.20000000000007
 20
76.95935674649505
 11
85.70000000000007
 21
76.95935674649505
 72
     1
 10
85.70000000000007
 20
76.95935674649505
 11
84.95000000000007
 21
74.95935674649505
 72
     1
 10
84.95000000000007
 20
74.95935674649505
 11
84.20000000000007
 21
76.95935674649505
 97
        3
330
EA
330
E8
330
E9
 75
     0
 76
     1
 98
        1
 10
0.0
 20
0.0
  0
ENDSEC
  0
SECTION
  2
OBJECTS
  0
DICTIONARY
  5
C
330
0
100
AcDbDictionary
281
     1
  3
ACAD_GROUP
350
D
  3
ACAD_LAYOUT
350
1A
  3
ACAD_MATERIAL
350
3B
  3
ACAD_MLEADERSTYLE
350
5EA
  3
ACAD_MLINESTYLE
350
17
  3
ACAD_PLOTSETTINGS
350
19
  3
ACAD_PLOTSTYLENAME
350
E
  3
ACAD_VISUALSTYLE
350
2A
  3
AcDbVariableDictionary
350
5E8
  0
DICTIONARY
  5
D
102
{ACAD_REACTORS
330
C
102
}
330
C
100
AcDbDictionary
281
     1
  0
DICTIONARY
  5
1A
102
{ACAD_REACTORS
330
C
102
}
330
C
100
AcDbDictionary
281
     1
  3
Layout1
350
1E
  3
Layout2
350
26
  3
Model
350
22
  0
DICTIONARY
  5
3B
102
{ACAD_REACTORS
330
C
102
}
330
C
100
AcDbDictionary
281
     1
  3
ByBlock
350
3D
  3
ByLayer
350
3C
  3
Global
350
3E
  0
DICTIONARY
  5
5EA
102
{ACAD_REACTORS
330
C
102
}
330
C
100
AcDbDictionary
281
     1
  0
DICTIONARY
  5
17
102
{ACAD_REACTORS
330
C
102
}
330
C
100
AcDbDictionary
281
     1
  3
Standard
350
18
  0
DICTIONARY
  5
19
102
{ACAD_REACTORS
330
C
102
}
330
C
100
AcDbDictionary
281
     1
  0
ACDBDICTIONARYWDFLT
  5
E
102
{ACAD_REACTORS
330
C
102
}
330
C
100
AcDbDictionary
281
     1
  3
Normal
350
F
100
AcDbDictionaryWithDefault
340
F
  0
DICTIONARY
  5
2A
102
{ACAD_REACTORS
330
C
102
}
330
C
100
AcDbDictionary
281
     1
  3
2dWireframe
350
2F
  3
3D Hidden
350
31
  3
3dWireframe
350
30
  3
Basic
350
32
  3
Brighten
350
36
  3
ColorChange
350
3A
  3
Conceptual
350
34
  3
Dim
350
35
  3
Facepattern
350
39
  3
Flat
350
2B
  3
FlatWithEdges
350
2C
  3
Gouraud
350
2D
  3
GouraudWithEdges
350
2E
  3
Linepattern
350
38
  3
Realistic
350
33
  3
Thicken
350
37
  0
DICTIONARY
  5
5E8
102
{ACAD_REACTORS
330
C
102
}
330
C
100
AcDbDictionary
281
     1
  3
DIMASSOC
350
5EB
  3
HIDETEXT
350
5EC
  0
LAYOUT
  5
1E
102
{ACAD_REACTORS
330
1A
102
}
330
1A
100
AcDbPlotSettings
  1

  2
none_device
  4

  6

 40
0.0
 41
0.0
 42
0.0
 43
0.0
 44
0.0
 45
0.0
 46
0.0
 47
0.0
 48
0.0
 49
0.0
140
0.0
141
0.0
142
1.0
143
1.0
 70
   688
 72
     0
 73
     0
 74
     5
  7

 75
    16
147
1.0
148
0.0
149
0.0
100
AcDbLayout
  1
Layout1
 70
     1
 71
     1
 10
0.0
 20
0.0
 11
12.0
 21
9.0
 12
0.0
 22
0.0
 32
0.0
 14
1.00000000000000E+20
 24
1.00000000000000E+20
 34
1.00000000000000E+20
 15
-1.00000000000000E+20
 25
-1.00000000000000E+20
 35
-1.00000000000000E+20
146
0.0
 13
0.0
 23
0.0
 33
0.0
 16
1.0
 26
0.0
 36
0.0
 17
0.0
 27
1.0
 37
0.0
 76
     0
330
1B
  0
LAYOUT
  5
26
102
{ACAD_REACTORS
330
1A
102
}
330
1A
100
AcDbPlotSettings
  1

  2
none_device
  4

  6

 40
0.0
 41
0.0
 42
0.0
 43
0.0
 44
0.0
 45
0.0
 46
0.0
 47
0.0
 48
0.0
 49
0.0
140
0.0
141
0.0
142
1.0
143
1.0
 70
   688
 72
     0
 73
     0
 74
     5
  7

 75
    16
147
1.0
148
0.0
149
0.0
100
AcDbLayout
  1
Layout2
 70
     1
 71
     2
 10
0.0
 20
0.0
 11
0.0
 21
0.0
 12
0.0
 22
0.0
 32
0.0
 14
0.0
 24
0.0
 34
0.0
 15
0.0
 25
0.0
 35
0.0
146
0.0
 13
0.0
 23
0.0
 33
0.0
 16
1.0
 26
0.0
 36
0.0
 17
0.0
 27
1.0
 37
0.0
 76
     0
330
23
  0
LAYOUT
  5
22
102
{ACAD_REACTORS
330
1A
102
}
330
1A
100
AcDbPlotSettings
  1

  2
none_device
  4

  6

 40
0.0
 41
0.0
 42
0.0
 43
0.0
 44
0.0
 45
0.0
 46
0.0
 47
0.0
 48
0.0
 49
0.0
140
0.0
141
0.0
142
1.0
143
1.0
 70
  1712
 72
     0
 73
     0
 74
     0
  7

 75
     0
147
1.0
148
0.0
149
0.0
100
AcDbLayout
  1
Model
 70
     1
 71
     0
 10
0.0
 20
0.0
 11
12.0
 21
9.0
 12
0.0
 22
0.0
 32
0.0
 14
0.0
 24
0.0
 34
0.0
 15
210.0000000000001
 25
297.0000000000001
 35
0.0
146
0.0
 13
0.0
 23
0.0
 33
0.0
 16
1.0
 26
0.0
 36
0.0
 17
0.0
 27
1.0
 37
0.0
 76
     0
330
1F
331
29
  0
MATERIAL
  5
3D
102
{ACAD_REACTORS
330
3B
102
}
102
{ACAD_XDICTIONARY
360
60F
102
}
330
3B
100
AcDbMaterial
  1
ByBlock
  0
MATERIAL
  5
3C
102
{ACAD_REACTORS
330
3B
102
}
102
{ACAD_XDICTIONARY
360
60D
102
}
330
3B
100
AcDbMaterial
  1
ByLayer
  0
MATERIAL
  5
3E
102
{ACAD_REACTORS
330
3B
102
}
102
{ACAD_XDICTIONARY
360
611
102
}
330
3B
100
AcDbMaterial
  1
Global
  0
MLINESTYLE
  5
18
102
{ACAD_REACTORS
330
17
102
}
330
17
100
AcDbMlineStyle
  2
Standard
 70
     0
  3

 62
   256
 51
90.0
 52
90.0
 71
     2
 49
0.5
 62
   256
  6
BYLAYER
 49
-0.5
 62
   256
  6
BYLAYER
  0
ACDBPLACEHOLDER
  5
F
102
{ACAD_REACTORS
330
E
102
}
330
E
  0
VISUALSTYLE
  5
2F
102
{ACAD_REACTORS
330
2A
102
}
102
{ACAD_XDICTIONARY
360
5F5
102
}
330
2A
100
AcDbVisualStyle
  2
2dWireframe
 70
     4
 71
     0
 72
     2
 73
     0
 90
        0
 40
-0.6
 41
-30.0
 62
     5
 63
     7
 74
     1
 91
        4
 64
     7
 65
   257
 75
     1
175
     1
 42
1.0
 92
        0
 66
   257
 43
1.0
 76
     1
 77
     6
 78
     2
 67
     7
 79
     5
170
     0
171
     0
290
     0
174
     0
 93
        1
 44
0.0
173
     0
291
     0
 45
0.0
1001
ACAD
1000
AcDbSavedByObjectVersion
1070
     0
  0
VISUALSTYLE
  5
31
102
{ACAD_REACTORS
330
2A
102
}
102
{ACAD_XDICTIONARY
360
5F9
102
}
330
2A
100
AcDbVisualStyle
  2
3D Hidden
 70
     6
 71
     1
 72
     2
 73
     2
 90
        0
 40
-0.6
 41
-30.0
 62
     5
 63
     7
 74
     2
 91
        2
 64
     7
 65
   257
 75
     2
175
     1
 42
40.0
 92
        0
 66
   257
 43
1.0
 76
     1
 77
     6
 78
     2
 67
     7
 79
     3
170
     0
171
     0
290
     0
174
     0
 93
        1
 44
0.0
173
     0
291
     0
 45
0.0
1001
ACAD
1000
AcDbSavedByObjectVersion
1070
     0
  0
VISUALSTYLE
  5
30
102
{ACAD_REACTORS
330
2A
102
}
102
{ACAD_XDICTIONARY
360
5F7
102
}
330
2A
100
AcDbVisualStyle
  2
3dWireframe
 70
     5
 71
     0
 72
     2
 73
     0
 90
        0
 40
-0.6
 41
-30.0
 62
     5
 63
     7
 74
     1
 91
        4
 64
     7
 65
   257
 75
     1
175
     1
 42
1.0
 92
        0
 66
   257
 43
1.0
 76
     1
 77
     6
 78
     2
 67
     7
 79
     5
170
     0
171
     0
290
     0
174
     0
 93
        1
 44
0.0
173
     0
291
     0
 45
0.0
1001
ACAD
1000
AcDbSavedByObjectVersion
1070
     0
  0
VISUALSTYLE
  5
32
102
{ACAD_REACTORS
330
2A
102
}
102
{ACAD_XDICTIONARY
360
5FB
102
}
330
2A
100
AcDbVisualStyle
  2
Basic
 70
     7
 71
     1
 72
     0
 73
     1
 90
        0
 40
-0.6
 41
-30.0
 62
     5
 63
     7
 74
     0
 91
        4
 64
     7
 65
   257
 75
     1
175
     1
 42
1.0
 92
        8
 66
     7
 43
1.0
 76
     1
 77
     6
 78
     2
 67
     7
 79
     5
170
     0
171
     0
290
     0
174
     0
 93
        1
 44
0.0
173
     0
291
     1
 45
0.0
1001
ACAD
1000
AcDbSavedByObjectVersion
1070
     0
  0
VISUALSTYLE
  5
36
102
{ACAD_REACTORS
330
2A
102
}
102
{ACAD_XDICTIONARY
360
603
102
}
330
2A
100
AcDbVisualStyle
  2
Brighten
 70
    12
 71
     2
 72
     2
 73
     0
 90
        0
 40
-0.6
 41
-30.0
 62
     5
 63
     7
 74
     1
 91
        4
 64
     7
 65
   257
 75
     1
175
     1
 42
1.0
 92
        8
 66
     7
 43
1.0
 76
     1
 77
     6
 78
     2
 67
     7
 79
     5
170
     0
171
     0
290
     0
174
     0
 93
        1
 44
50.0
173
     0
291
     1
 45
0.0
1001
ACAD
1000
AcDbSavedByObjectVersion
1070
     0
  0
VISUALSTYLE
  5
3A
102
{ACAD_REACTORS
330
2A
102
}
102
{ACAD_XDICTIONARY
360
60B
102
}
330
2A
100
AcDbVisualStyle
  2
ColorChange
 70
    16
 71
     2
 72
     2
 73
     3
 90
        0
 40
-0.6
 41
-30.0
 62
     5
 63
     8
 74
     1
 91
        4
 64
     7
 65
   257
 75
     1
175
     1
 42
1.0
 92
        8
 66
     8
 43
1.0
 76
     1
 77
     6
 78
     2
 67
     7
 79
     5
170
     0
171
     0
290
     0
174
     0
 93
        1
 44
0.0
173
     0
291
     1
 45
0.0
1001
ACAD
1000
AcDbSavedByObjectVersion
1070
     0
  0
VISUALSTYLE
  5
34
102
{ACAD_REACTORS
330
2A
102
}
102
{ACAD_XDICTIONARY
360
5FF
102
}
330
2A
100
AcDbVisualStyle
  2
Conceptual
 70
     9
 71
     3
 72
     2
 73
     0
 90
        0
 40
-0.6
 41
-30.0
 62
     5
 63
     7
 74
     2
 91
        2
 64
     7
 65
   257
 75
     1
175
     1
 42
40.0
 92
        8
 66
     7
 43
1.0
 76
     1
 77
     6
 78
     2
 67
     7
 79
     3
170
     0
171
     0
290
     0
174
     0
 93
        1
 44
0.0
173
     0
291
     0
 45
0.0
1001
ACAD
1000
AcDbSavedByObjectVersion
1070
     0
  0
VISUALSTYLE
  5
35
102
{ACAD_REACTORS
330
2A
102
}
102
{ACAD_XDICTIONARY
360
601
102
}
330
2A
100
AcDbVisualStyle
  2
Dim
 70
    11
 71
     2
 72
     2
 73
     0
 90
        0
 40
-0.6
 41
-30.0
 62
     5
 63
     7
 74
     1
 91
        4
 64
     7
 65
   257
 75
     1
175
     1
 42
1.0
 92
        8
 66
     7
 43
1.0
 76
     1
 77
     6
 78
     2
 67
     7
 79
     5
170
     0
171
     0
290
     0
174
     0
 93
        1
 44
-50.0
173
     0
291
     1
 45
0.0
1001
ACAD
1000
AcDbSavedByObjectVersion
1070
     0
  0
VISUALSTYLE
  5
39
102
{ACAD_REACTORS
330
2A
102
}
102
{ACAD_XDICTIONARY
360
609
102
}
330
2A
100
AcDbVisualStyle
  2
Facepattern
 70
    15
 71
     2
 72
     2
 73
     0
 90
        0
 40
-0.6
 41
-30.0
 62
     5
 63
     7
 74
     1
 91
        4
 64
     7
 65
   257
 75
     1
175
     1
 42
1.0
 92
        8
 66
     7
 43
1.0
 76
     1
 77
     6
 78
     2
 67
     7
 79
     5
170
     0
171
     0
290
     0
174
     0
 93
        1
 44
0.0
173
     0
291
     1
 45
0.0
1001
ACAD
1000
AcDbSavedByObjectVersion
1070
     0
  0
VISUALSTYLE
  5
2B
102
{ACAD_REACTORS
330
2A
102
}
102
{ACAD_XDICTIONARY
360
5ED
102
}
330
2A
100
AcDbVisualStyle
  2
Flat
 70
     0
 71
     2
 72
     1
 73
     1
 90
        2
 40
-0.6
 41
30.0
 62
     5
 63
     7
 74
     0
 91
        4
 64
     7
 65
   257
 75
     1
175
     1
 42
1.0
 92
        8
 66
     7
 43
1.0
 76
     1
 77
     6
 78
     2
 67
     7
 79
     5
170
     0
171
     0
290
     0
174
     0
 93
       13
 44
0.0
173
     0
291
     1
 45
0.0
1001
ACAD
1000
AcDbSavedByObjectVersion
1070
     0
  0
VISUALSTYLE
  5
2C
102
{ACAD_REACTORS
330
2A
102
}
102
{ACAD_XDICTIONARY
360
5EF
102
}
330
2A
100
AcDbVisualStyle
  2
FlatWithEdges
 70
     1
 71
     2
 72
     1
 73
     1
 90
        2
 40
-0.6
 41
30.0
 62
     5
 63
     7
 74
     1
 91
        4
 64
     7
 65
   257
 75
     1
175
     1
 42
1.0
 92
        0
 66
   257
 43
1.0
 76
     1
 77
     6
 78
     2
 67
     7
 79
     5
170
     0
171
     0
290
     0
174
     0
 93
       13
 44
0.0
173
     0
291
     1
 45
0.0
1001
ACAD
1000
AcDbSavedByObjectVersion
1070
     0
  0
VISUALSTYLE
  5
2D
102
{ACAD_REACTORS
330
2A
102
}
102
{ACAD_XDICTIONARY
360
5F1
102
}
330
2A
100
AcDbVisualStyle
  2
Gouraud
 70
     2
 71
     2
 72
     2
 73
     1
 90
        2
 40
-0.6
 41
30.0
 62
     5
 63
     7
 74
     0
 91
        4
 64
     7
 65
   257
 75
     1
175
     1
 42
1.0
 92
        0
 66
     7
 43
1.0
 76
     1
 77
     6
 78
     2
 67
     7
 79
     5
170
     0
171
     0
290
     0
174
     0
 93
       13
 44
0.0
173
     0
291
     1
 45
0.0
1001
ACAD
1000
AcDbSavedByObjectVersion
1070
     0
  0
VISUALSTYLE
  5
2E
102
{ACAD_REACTORS
330
2A
102
}
102
{ACAD_XDICTIONARY
360
5F3
102
}
330
2A
100
AcDbVisualStyle
  2
GouraudWithEdges
 70
     3
 71
     2
 72
     2
 73
     1
 90
        2
 40
-0.6
 41
30.0
 62
     5
 63
     7
 74
     1
 91
        4
 64
     7
 65
   257
 75
     1
175
     1
 42
1.0
 92
        0
 66
   257
 43
1.0
 76
     1
 77
     6
 78
     2
 67
     7
 79
     5
170
     0
171
     0
290
     0
174
     0
 93
       13
 44
0.0
173
     0
291
     1
 45
0.0
1001
ACAD
1000
AcDbSavedByObjectVersion
1070
     0
  0
VISUALSTYLE
  5
38
102
{ACAD_REACTORS
330
2A
102
}
102
{ACAD_XDICTIONARY
360
607
102
}
330
2A
100
AcDbVisualStyle
  2
Linepattern
 70
    14
 71
     2
 72
     2
 73
     0
 90
        0
 40
-0.6
 41
-30.0
 62
     5
 63
     7
 74
     1
 91
        4
 64
     7
 65
   257
 75
     7
175
     7
 42
1.0
 92
        8
 66
     7
 43
1.0
 76
     1
 77
     6
 78
     2
 67
     7
 79
     5
170
     0
171
     0
290
     0
174
     0
 93
        1
 44
0.0
173
     0
291
     1
 45
0.0
1001
ACAD
1000
AcDbSavedByObjectVersion
1070
     0
  0
VISUALSTYLE
  5
33
102
{ACAD_REACTORS
330
2A
102
}
102
{ACAD_XDICTIONARY
360
5FD
102
}
330
2A
100
AcDbVisualStyle
  2
Realistic
 70
     8
 71
     2
 72
     2
 73
     0
 90
        0
 40
-0.6
 41
-30.0
 62
     5
 63
     7
 74
     1
 91
        0
 64
     7
 65
   257
 75
     1
175
     1
 42
1.0
 92
        8
 66
     8
 43
1.0
 76
     1
 77
     6
 78
     2
 67
     7
 79
     5
170
     0
171
     0
290
     0
174
     0
 93
       13
 44
0.0
173
     0
291
     0
 45
0.0
1001
ACAD
1000
AcDbSavedByObjectVersion
1070
     0
  0
VISUALSTYLE
  5
37
102
{ACAD_REACTORS
330
2A
102
}
102
{ACAD_XDICTIONARY
360
605
102
}
330
2A
100
AcDbVisualStyle
  2
Thicken
 70
    13
 71
     2
 72
     2
 73
     0
 90
        0
 40
-0.6
 41
-30.0
 62
     5
 63
     7
 74
     1
 91
        4
 64
     7
 65
   257
 75
     1
175
     1
 42
1.0
 92
       12
 66
     7
 43
1.0
 76
     1
 77
     6
 78
     2
 67
     7
 79
     5
170
     0
171
     0
290
     0
174
     0
 93
        1
 44
0.0
173
     0
291
     1
 45
0.0
1001
ACAD
1000
AcDbSavedByObjectVersion
1070
     0
  0
DICTIONARYVAR
  5
5EB
102
{ACAD_REACTORS
330
5E8
102
}
330
5E8
100
DictionaryVariables
280
     0
  1
2
  0
DICTIONARYVAR
  5
5EC
102
{ACAD_REACTORS
330
5E8
102
}
330
5E8
100
DictionaryVariables
280
     0
  1
1
  0
DICTIONARY
  5
60F
330
3D
100
AcDbDictionary
280
     1
281
     1
  3
ACAD_XREC_ROUNDTRIP
360
610
  0
DICTIONARY
  5
60D
330
3C
100
AcDbDictionary
280
     1
281
     1
  3
ACAD_XREC_ROUNDTRIP
360
60E
  0
DICTIONARY
  5
611
330
3E
100
AcDbDictionary
280
     1
281
     1
  3
ACAD_XREC_ROUNDTRIP
360
612
  0
DICTIONARY
  5
5F5
330
2F
100
AcDbDictionary
280
     1
281
     1
  3
ACAD_XREC_ROUNDTRIP
360
5F6
  0
DICTIONARY
  5
5F9
330
31
100
AcDbDictionary
280
     1
281
     1
  3
ACAD_XREC_ROUNDTRIP
360
5FA
  0
DICTIONARY
  5
5F7
330
30
100
AcDbDictionary
280
     1
281
     1
  3
ACAD_XREC_ROUNDTRIP
360
5F8
  0
DICTIONARY
  5
5FB
330
32
100
AcDbDictionary
280
     1
281
     1
  3
ACAD_XREC_ROUNDTRIP
360
5FC
  0
DICTIONARY
  5
603
330
36
100
AcDbDictionary
280
     1
281
     1
  3
ACAD_XREC_ROUNDTRIP
360
604
  0
DICTIONARY
  5
60B
330
3A
100
AcDbDictionary
280
     1
281
     1
  3
ACAD_XREC_ROUNDTRIP
360
60C
  0
DICTIONARY
  5
5FF
330
34
100
AcDbDictionary
280
     1
281
     1
  3
ACAD_XREC_ROUNDTRIP
360
600
  0
DICTIONARY
  5
601
330
35
100
AcDbDictionary
280
     1
281
     1
  3
ACAD_XREC_ROUNDTRIP
360
602
  0
DICTIONARY
  5
609
330
39
100
AcDbDictionary
280
     1
281
     1
  3
ACAD_XREC_ROUNDTRIP
360
60A
  0
DICTIONARY
  5
5ED
330
2B
100
AcDbDictionary
280
     1
281
     1
  3
ACAD_XREC_ROUNDTRIP
360
5EE
  0
DICTIONARY
  5
5EF
330
2C
100
AcDbDictionary
280
     1
281
     1
  3
ACAD_XREC_ROUNDTRIP
360
5F0
  0
DICTIONARY
  5
5F1
330
2D
100
AcDbDictionary
280
     1
281
     1
  3
ACAD_XREC_ROUNDTRIP
360
5F2
  0
DICTIONARY
  5
5F3
330
2E
100
AcDbDictionary
280
     1
281
     1
  3
ACAD_XREC_ROUNDTRIP
360
5F4
  0
DICTIONARY
  5
607
330
38
100
AcDbDictionary
280
     1
281
     1
  3
ACAD_XREC_ROUNDTRIP
360
608
  0
DICTIONARY
  5
5FD
330
33
100
AcDbDictionary
280
     1
281
     1
  3
ACAD_XREC_ROUNDTRIP
360
5FE
  0
DICTIONARY
  5
605
330
37
100
AcDbDictionary
280
     1
281
     1
  3
ACAD_XREC_ROUNDTRIP
360
606
  0
XRECORD
  5
610
102
{ACAD_REACTORS
330
60F
102
}
330
60F
100
AcDbXrecord
280
     1
102
MATERIAL
148
0.0
149
0.0
149
0.0
 93
        0
 94
      127
282
     0
 72
     1
 77
     1
171
     1
175
     1
179
     1
273
     0
  0
XRECORD
  5
60E
102
{ACAD_REACTORS
330
60D
102
}
330
60D
100
AcDbXrecord
280
     1
102
MATERIAL
148
0.0
149
0.0
149
0.0
 93
        0
 94
      127
282
     0
 72
     1
 77
     1
171
     1
175
     1
179
     1
273
     0
  0
XRECORD
  5
612
102
{ACAD_REACTORS
330
611
102
}
330
611
100
AcDbXrecord
280
     1
102
MATERIAL
148
0.0
149
0.0
149
0.0
 93
        0
 94
      127
282
     0
 72
     1
 77
     1
171
     1
175
     1
179
     1
273
     0
  0
XRECORD
  5
5F6
102
{ACAD_REACTORS
330
5F5
102
}
330
5F5
100
AcDbXrecord
280
     1
102
RTVSPropertyOp0
 70
     1
102
RTVSPropertyOp1
 70
     1
102
RTVSPropertyOp2
 70
     1
102
RTVSPropertyOp3
 70
     1
102
RTVSPropertyOp4
 70
     1
102
RTVSPropertyOp5
 70
     1
102
RTVSPropertyOp6
 70
     1
102
RTVSPropertyOp7
 70
     1
102
RTVSPropertyOp8
 70
     1
102
RTVSPropertyOp9
 70
     1
102
RTVSPropertyOp10
 70
     1
102
RTVSPropertyOp11
 70
     1
102
RTVSPropertyOp12
 70
     1
102
RTVSPropertyOp13
 70
     1
102
RTVSPropertyOp14
 70
     1
102
RTVSPropertyOp15
 70
     1
102
RTVSPropertyOp16
 70
     1
102
RTVSPropertyOp17
 70
     1
102
RTVSPropertyOp18
 70
     1
102
RTVSPropertyOp19
 70
     1
102
RTVSPropertyOp20
 70
     1
102
RTVSPropertyOp21
 70
     1
102
RTVSPropertyOp22
 70
     1
102
RTVSPropertyOp23
 70
     1
102
RTVSPropertyOp24
 70
     1
102
RTVSPropertyOp25
 70
     1
102
RTVSPropertyOp26
 70
     1
102
RTVSPropertyOp27
 70
     1
102
RTVSPropertyOp28
 70
     1
102
RTVSPropertyOp29
 70
     1
102
RTVSPropertyOp30
 70
     1
102
RTVSPropertyOp31
 70
     1
102
RTVSPropertyOp32
 70
     1
  0
XRECORD
  5
5FA
102
{ACAD_REACTORS
330
5F9
102
}
330
5F9
100
AcDbXrecord
280
     1
102
RTVSPropertyOp0
 70
     1
102
RTVSPropertyOp1
 70
     1
102
RTVSPropertyOp2
 70
     1
102
RTVSPropertyOp3
 70
     1
102
RTVSPropertyOp4
 70
     1
102
RTVSPropertyOp5
 70
     1
102
RTVSPropertyOp6
 70
     1
102
RTVSPropertyOp7
 70
     1
102
RTVSPropertyOp8
 70
     1
102
RTVSPropertyOp9
 70
     1
102
RTVSPropertyOp10
 70
     1
102
RTVSPropertyOp11
 70
     1
102
RTVSPropertyOp12
 70
     1
102
RTVSPropertyOp13
 70
     1
102
RTVSPropertyOp14
 70
     1
102
RTVSPropertyOp15
 70
     1
102
RTVSPropertyOp16
 70
     1
102
RTVSPropertyOp17
 70
     1
102
RTVSPropertyOp18
 70
     1
102
RTVSPropertyOp19
 70
     1
102
RTVSPropertyOp20
 70
     1
102
RTVSPropertyOp21
 70
     1
102
RTVSPropertyOp22
 70
     1
102
RTVSPropertyOp23
 70
     1
102
RTVSPropertyOp24
 70
     1
102
RTVSPropertyOp25
 70
     1
102
RTVSPropertyOp26
 70
     1
102
RTVSPropertyOp27
 70
     1
102
RTVSPropertyOp28
 70
     1
102
RTVSPropertyOp29
 70
     1
102
RTVSPropertyOp30
 70
     1
102
RTVSPropertyOp31
 70
     1
102
RTVSPropertyOp32
 70
     1
  0
XRECORD
  5
5F8
102
{ACAD_REACTORS
330
5F7
102
}
330
5F7
100
AcDbXrecord
280
     1
102
RTVSPropertyOp0
 70
     1
102
RTVSPropertyOp1
 70
     1
102
RTVSPropertyOp2
 70
     1
102
RTVSPropertyOp3
 70
     1
102
RTVSPropertyOp4
 70
     1
102
RTVSPropertyOp5
 70
     1
102
RTVSPropertyOp6
 70
     1
102
RTVSPropertyOp7
 70
     1
102
RTVSPropertyOp8
 70
     1
102
RTVSPropertyOp9
 70
     1
102
RTVSPropertyOp10
 70
     1
102
RTVSPropertyOp11
 70
     1
102
RTVSPropertyOp12
 70
     1
102
RTVSPropertyOp13
 70
     1
102
RTVSPropertyOp14
 70
     1
102
RTVSPropertyOp15
 70
     1
102
RTVSPropertyOp16
 70
     1
102
RTVSPropertyOp17
 70
     1
102
RTVSPropertyOp18
 70
     1
102
RTVSPropertyOp19
 70
     1
102
RTVSPropertyOp20
 70
     1
102
RTVSPropertyOp21
 70
     1
102
RTVSPropertyOp22
 70
     1
102
RTVSPropertyOp23
 70
     1
102
RTVSPropertyOp24
 70
     1
102
RTVSPropertyOp25
 70
     1
102
RTVSPropertyOp26
 70
     1
102
RTVSPropertyOp27
 70
     1
102
RTVSPropertyOp28
 70
     1
102
RTVSPropertyOp29
 70
     1
102
RTVSPropertyOp30
 70
     1
102
RTVSPropertyOp31
 70
     1
102
RTVSPropertyOp32
 70
     1
  0
XRECORD
  5
5FC
102
{ACAD_REACTORS
330
5FB
102
}
330
5FB
100
AcDbXrecord
280
     1
102
RTVSPropertyOp0
 70
     1
102
RTVSPropertyOp1
 70
     1
102
RTVSPropertyOp2
 70
     1
102
RTVSPropertyOp3
 70
     1
102
RTVSPropertyOp4
 70
     1
102
RTVSPropertyOp5
 70
     1
102
RTVSPropertyOp6
 70
     1
102
RTVSPropertyOp7
 70
     1
102
RTVSPropertyOp8
 70
     1
102
RTVSPropertyOp9
 70
     1
102
RTVSPropertyOp10
 70
     1
102
RTVSPropertyOp11
 70
     1
102
RTVSPropertyOp12
 70
     1
102
RTVSPropertyOp13
 70
     1
102
RTVSPropertyOp14
 70
     1
102
RTVSPropertyOp15
 70
     1
102
RTVSPropertyOp16
 70
     1
102
RTVSPropertyOp17
 70
     1
102
RTVSPropertyOp18
 70
     1
102
RTVSPropertyOp19
 70
     1
102
RTVSPropertyOp20
 70
     1
102
RTVSPropertyOp21
 70
     1
102
RTVSPropertyOp22
 70
     1
102
RTVSPropertyOp23
 70
     1
102
RTVSPropertyOp24
 70
     1
102
RTVSPropertyOp25
 70
     1
102
RTVSPropertyOp26
 70
     1
102
RTVSPropertyOp27
 70
     1
102
RTVSPropertyOp28
 70
     1
102
RTVSPropertyOp29
 70
     1
102
RTVSPropertyOp30
 70
     1
102
RTVSPropertyOp31
 70
     1
102
RTVSPropertyOp32
 70
     1
  0
XRECORD
  5
604
102
{ACAD_REACTORS
330
603
102
}
330
603
100
AcDbXrecord
280
     1
102
RTVSPropertyOp0
 70
     1
102
RTVSPropertyOp1
 70
     1
102
RTVSPropertyOp2
 70
     1
102
RTVSPropertyOp3
 70
     1
102
RTVSPropertyOp4
 70
     1
102
RTVSPropertyOp5
 70
     1
102
RTVSPropertyOp6
 70
     1
102
RTVSPropertyOp7
 70
     1
102
RTVSPropertyOp8
 70
     1
102
RTVSPropertyOp9
 70
     1
102
RTVSPropertyOp10
 70
     1
102
RTVSPropertyOp11
 70
     1
102
RTVSPropertyOp12
 70
     1
102
RTVSPropertyOp13
 70
     1
102
RTVSPropertyOp14
 70
     1
102
RTVSPropertyOp15
 70
     1
102
RTVSPropertyOp16
 70
     1
102
RTVSPropertyOp17
 70
     1
102
RTVSPropertyOp18
 70
     1
102
RTVSPropertyOp19
 70
     1
102
RTVSPropertyOp20
 70
     1
102
RTVSPropertyOp21
 70
     1
102
RTVSPropertyOp22
 70
     1
102
RTVSPropertyOp23
 70
     1
102
RTVSPropertyOp24
 70
     1
102
RTVSPropertyOp25
 70
     1
102
RTVSPropertyOp26
 70
     1
102
RTVSPropertyOp27
 70
     1
102
RTVSPropertyOp28
 70
     1
102
RTVSPropertyOp29
 70
     1
102
RTVSPropertyOp30
 70
     1
102
RTVSPropertyOp31
 70
     1
102
RTVSPropertyOp32
 70
     1
  0
XRECORD
  5
60C
102
{ACAD_REACTORS
330
60B
102
}
330
60B
100
AcDbXrecord
280
     1
102
RTVSPropertyOp0
 70
     1
102
RTVSPropertyOp1
 70
     1
102
RTVSPropertyOp2
 70
     1
102
RTVSPropertyOp3
 70
     1
102
RTVSPropertyOp4
 70
     1
102
RTVSPropertyOp5
 70
     1
102
RTVSPropertyOp6
 70
     1
102
RTVSPropertyOp7
 70
     1
102
RTVSPropertyOp8
 70
     1
102
RTVSPropertyOp9
 70
     1
102
RTVSPropertyOp10
 70
     1
102
RTVSPropertyOp11
 70
     1
102
RTVSPropertyOp12
 70
     1
102
RTVSPropertyOp13
 70
     1
102
RTVSPropertyOp14
 70
     1
102
RTVSPropertyOp15
 70
     1
102
RTVSPropertyOp16
 70
     1
102
RTVSPropertyOp17
 70
     1
102
RTVSPropertyOp18
 70
     1
102
RTVSPropertyOp19
 70
     1
102
RTVSPropertyOp20
 70
     1
102
RTVSPropertyOp21
 70
     1
102
RTVSPropertyOp22
 70
     1
102
RTVSPropertyOp23
 70
     1
102
RTVSPropertyOp24
 70
     1
102
RTVSPropertyOp25
 70
     1
102
RTVSPropertyOp26
 70
     1
102
RTVSPropertyOp27
 70
     1
102
RTVSPropertyOp28
 70
     1
102
RTVSPropertyOp29
 70
     1
102
RTVSPropertyOp30
 70
     1
102
RTVSPropertyOp31
 70
     1
102
RTVSPropertyOp32
 70
     1
  0
XRECORD
  5
600
102
{ACAD_REACTORS
330
5FF
102
}
330
5FF
100
AcDbXrecord
280
     1
102
RTVSPropertyOp0
 70
     1
102
RTVSPropertyOp1
 70
     1
102
RTVSPropertyOp2
 70
     1
102
RTVSPropertyOp3
 70
     1
102
RTVSPropertyOp4
 70
     1
102
RTVSPropertyOp5
 70
     1
102
RTVSPropertyOp6
 70
     1
102
RTVSPropertyOp7
 70
     1
102
RTVSPropertyOp8
 70
     1
102
RTVSPropertyOp9
 70
     1
102
RTVSPropertyOp10
 70
     1
102
RTVSPropertyOp11
 70
     1
102
RTVSPropertyOp12
 70
     1
102
RTVSPropertyOp13
 70
     1
102
RTVSPropertyOp14
 70
     1
102
RTVSPropertyOp15
 70
     1
102
RTVSPropertyOp16
 70
     1
102
RTVSPropertyOp17
 70
     1
102
RTVSPropertyOp18
 70
     1
102
RTVSPropertyOp19
 70
     1
102
RTVSPropertyOp20
 70
     1
102
RTVSPropertyOp21
 70
     1
102
RTVSPropertyOp22
 70
     1
102
RTVSPropertyOp23
 70
     1
102
RTVSPropertyOp24
 70
     1
102
RTVSPropertyOp25
 70
     1
102
RTVSPropertyOp26
 70
     1
102
RTVSPropertyOp27
 70
     1
102
RTVSPropertyOp28
 70
     1
102
RTVSPropertyOp29
 70
     1
102
RTVSPropertyOp30
 70
     1
102
RTVSPropertyOp31
 70
     1
102
RTVSPropertyOp32
 70
     1
  0
XRECORD
  5
602
102
{ACAD_REACTORS
330
601
102
}
330
601
100
AcDbXrecord
280
     1
102
RTVSPropertyOp0
 70
     1
102
RTVSPropertyOp1
 70
     1
102
RTVSPropertyOp2
 70
     1
102
RTVSPropertyOp3
 70
     1
102
RTVSPropertyOp4
 70
     1
102
RTVSPropertyOp5
 70
     1
102
RTVSPropertyOp6
 70
     1
102
RTVSPropertyOp7
 70
     1
102
RTVSPropertyOp8
 70
     1
102
RTVSPropertyOp9
 70
     1
102
RTVSPropertyOp10
 70
     1
102
RTVSPropertyOp11
 70
     1
102
RTVSPropertyOp12
 70
     1
102
RTVSPropertyOp13
 70
     1
102
RTVSPropertyOp14
 70
     1
102
RTVSPropertyOp15
 70
     1
102
RTVSPropertyOp16
 70
     1
102
RTVSPropertyOp17
 70
     1
102
RTVSPropertyOp18
 70
     1
102
RTVSPropertyOp19
 70
     1
102
RTVSPropertyOp20
 70
     1
102
RTVSPropertyOp21
 70
     1
102
RTVSPropertyOp22
 70
     1
102
RTVSPropertyOp23
 70
     1
102
RTVSPropertyOp24
 70
     1
102
RTVSPropertyOp25
 70
     1
102
RTVSPropertyOp26
 70
     1
102
RTVSPropertyOp27
 70
     1
102
RTVSPropertyOp28
 70
     1
102
RTVSPropertyOp29
 70
     1
102
RTVSPropertyOp30
 70
     1
102
RTVSPropertyOp31
 70
     1
102
RTVSPropertyOp32
 70
     1
  0
XRECORD
  5
60A
102
{ACAD_REACTORS
330
609
102
}
330
609
100
AcDbXrecord
280
     1
102
RTVSPropertyOp0
 70
     1
102
RTVSPropertyOp1
 70
     1
102
RTVSPropertyOp2
 70
     1
102
RTVSPropertyOp3
 70
     1
102
RTVSPropertyOp4
 70
     1
102
RTVSPropertyOp5
 70
     1
102
RTVSPropertyOp6
 70
     1
102
RTVSPropertyOp7
 70
     1
102
RTVSPropertyOp8
 70
     1
102
RTVSPropertyOp9
 70
     1
102
RTVSPropertyOp10
 70
     1
102
RTVSPropertyOp11
 70
     1
102
RTVSPropertyOp12
 70
     1
102
RTVSPropertyOp13
 70
     1
102
RTVSPropertyOp14
 70
     1
102
RTVSPropertyOp15
 70
     1
102
RTVSPropertyOp16
 70
     1
102
RTVSPropertyOp17
 70
     1
102
RTVSPropertyOp18
 70
     1
102
RTVSPropertyOp19
 70
     1
102
RTVSPropertyOp20
 70
     1
102
RTVSPropertyOp21
 70
     1
102
RTVSPropertyOp22
 70
     1
102
RTVSPropertyOp23
 70
     1
102
RTVSPropertyOp24
 70
     1
102
RTVSPropertyOp25
 70
     1
102
RTVSPropertyOp26
 70
     1
102
RTVSPropertyOp27
 70
     1
102
RTVSPropertyOp28
 70
     1
102
RTVSPropertyOp29
 70
     1
102
RTVSPropertyOp30
 70
     1
102
RTVSPropertyOp31
 70
     1
102
RTVSPropertyOp32
 70
     1
  0
XRECORD
  5
5EE
102
{ACAD_REACTORS
330
5ED
102
}
330
5ED
100
AcDbXrecord
280
     1
102
RTVSPropertyOp0
 70
     1
102
RTVSPropertyOp1
 70
     1
102
RTVSPropertyOp2
 70
     1
102
RTVSPropertyOp3
 70
     1
102
RTVSPropertyOp4
 70
     1
102
RTVSPropertyOp5
 70
     1
102
RTVSPropertyOp6
 70
     1
102
RTVSPropertyOp7
 70
     1
102
RTVSPropertyOp8
 70
     1
102
RTVSPropertyOp9
 70
     1
102
RTVSPropertyOp10
 70
     1
102
RTVSPropertyOp11
 70
     1
102
RTVSPropertyOp12
 70
     1
102
RTVSPropertyOp13
 70
     1
102
RTVSPropertyOp14
 70
     1
102
RTVSPropertyOp15
 70
     1
102
RTVSPropertyOp16
 70
     1
102
RTVSPropertyOp17
 70
     1
102
RTVSPropertyOp18
 70
     1
102
RTVSPropertyOp19
 70
     1
102
RTVSPropertyOp20
 70
     1
102
RTVSPropertyOp21
 70
     1
102
RTVSPropertyOp22
 70
     1
102
RTVSPropertyOp23
 70
     1
102
RTVSPropertyOp24
 70
     1
102
RTVSPropertyOp25
 70
     1
102
RTVSPropertyOp26
 70
     1
102
RTVSPropertyOp27
 70
     1
102
RTVSPropertyOp28
 70
     1
102
RTVSPropertyOp29
 70
     1
102
RTVSPropertyOp30
 70
     1
102
RTVSPropertyOp31
 70
     1
102
RTVSPropertyOp32
 70
     1
  0
XRECORD
  5
5F0
102
{ACAD_REACTORS
330
5EF
102
}
330
5EF
100
AcDbXrecord
280
     1
102
RTVSPropertyOp0
 70
     1
102
RTVSPropertyOp1
 70
     1
102
RTVSPropertyOp2
 70
     1
102
RTVSPropertyOp3
 70
     1
102
RTVSPropertyOp4
 70
     1
102
RTVSPropertyOp5
 70
     1
102
RTVSPropertyOp6
 70
     1
102
RTVSPropertyOp7
 70
     1
102
RTVSPropertyOp8
 70
     1
102
RTVSPropertyOp9
 70
     1
102
RTVSPropertyOp10
 70
     1
102
RTVSPropertyOp11
 70
     1
102
RTVSPropertyOp12
 70
     1
102
RTVSPropertyOp13
 70
     1
102
RTVSPropertyOp14
 70
     1
102
RTVSPropertyOp15
 70
     1
102
RTVSPropertyOp16
 70
     1
102
RTVSPropertyOp17
 70
     1
102
RTVSPropertyOp18
 70
     1
102
RTVSPropertyOp19
 70
     1
102
RTVSPropertyOp20
 70
     1
102
RTVSPropertyOp21
 70
     1
102
RTVSPropertyOp22
 70
     1
102
RTVSPropertyOp23
 70
     1
102
RTVSPropertyOp24
 70
     1
102
RTVSPropertyOp25
 70
     1
102
RTVSPropertyOp26
 70
     1
102
RTVSPropertyOp27
 70
     1
102
RTVSPropertyOp28
 70
     1
102
RTVSPropertyOp29
 70
     1
102
RTVSPropertyOp30
 70
     1
102
RTVSPropertyOp31
 70
     1
102
RTVSPropertyOp32
 70
     1
  0
XRECORD
  5
5F2
102
{ACAD_REACTORS
330
5F1
102
}
330
5F1
100
AcDbXrecord
280
     1
102
RTVSPropertyOp0
 70
     1
102
RTVSPropertyOp1
 70
     1
102
RTVSPropertyOp2
 70
     1
102
RTVSPropertyOp3
 70
     1
102
RTVSPropertyOp4
 70
     1
102
RTVSPropertyOp5
 70
     1
102
RTVSPropertyOp6
 70
     1
102
RTVSPropertyOp7
 70
     1
102
RTVSPropertyOp8
 70
     1
102
RTVSPropertyOp9
 70
     1
102
RTVSPropertyOp10
 70
     1
102
RTVSPropertyOp11
 70
     1
102
RTVSPropertyOp12
 70
     1
102
RTVSPropertyOp13
 70
     1
102
RTVSPropertyOp14
 70
     1
102
RTVSPropertyOp15
 70
     1
102
RTVSPropertyOp16
 70
     1
102
RTVSPropertyOp17
 70
     1
102
RTVSPropertyOp18
 70
     1
102
RTVSPropertyOp19
 70
     1
102
RTVSPropertyOp20
 70
     1
102
RTVSPropertyOp21
 70
     1
102
RTVSPropertyOp22
 70
     1
102
RTVSPropertyOp23
 70
     1
102
RTVSPropertyOp24
 70
     1
102
RTVSPropertyOp25
 70
     1
102
RTVSPropertyOp26
 70
     1
102
RTVSPropertyOp27
 70
     1
102
RTVSPropertyOp28
 70
     1
102
RTVSPropertyOp29
 70
     1
102
RTVSPropertyOp30
 70
     1
102
RTVSPropertyOp31
 70
     1
102
RTVSPropertyOp32
 70
     1
  0
XRECORD
  5
5F4
102
{ACAD_REACTORS
330
5F3
102
}
330
5F3
100
AcDbXrecord
280
     1
102
RTVSPropertyOp0
 70
     1
102
RTVSPropertyOp1
 70
     1
102
RTVSPropertyOp2
 70
     1
102
RTVSPropertyOp3
 70
     1
102
RTVSPropertyOp4
 70
     1
102
RTVSPropertyOp5
 70
     1
102
RTVSPropertyOp6
 70
     1
102
RTVSPropertyOp7
 70
     1
102
RTVSPropertyOp8
 70
     1
102
RTVSPropertyOp9
 70
     1
102
RTVSPropertyOp10
 70
     1
102
RTVSPropertyOp11
 70
     1
102
RTVSPropertyOp12
 70
     1
102
RTVSPropertyOp13
 70
     1
102
RTVSPropertyOp14
 70
     1
102
RTVSPropertyOp15
 70
     1
102
RTVSPropertyOp16
 70
     1
102
RTVSPropertyOp17
 70
     1
102
RTVSPropertyOp18
 70
     1
102
RTVSPropertyOp19
 70
     1
102
RTVSPropertyOp20
 70
     1
102
RTVSPropertyOp21
 70
     1
102
RTVSPropertyOp22
 70
     1
102
RTVSPropertyOp23
 70
     1
102
RTVSPropertyOp24
 70
     1
102
RTVSPropertyOp25
 70
     1
102
RTVSPropertyOp26
 70
     1
102
RTVSPropertyOp27
 70
     1
102
RTVSPropertyOp28
 70
     1
102
RTVSPropertyOp29
 70
     1
102
RTVSPropertyOp30
 70
     1
102
RTVSPropertyOp31
 70
     1
102
RTVSPropertyOp32
 70
     1
  0
XRECORD
  5
608
102
{ACAD_REACTORS
330
607
102
}
330
607
100
AcDbXrecord
280
     1
102
RTVSPropertyOp0
 70
     1
102
RTVSPropertyOp1
 70
     1
102
RTVSPropertyOp2
 70
     1
102
RTVSPropertyOp3
 70
     1
102
RTVSPropertyOp4
 70
     1
102
RTVSPropertyOp5
 70
     1
102
RTVSPropertyOp6
 70
     1
102
RTVSPropertyOp7
 70
     1
102
RTVSPropertyOp8
 70
     1
102
RTVSPropertyOp9
 70
     1
102
RTVSPropertyOp10
 70
     1
102
RTVSPropertyOp11
 70
     1
102
RTVSPropertyOp12
 70
     1
102
RTVSPropertyOp13
 70
     1
102
RTVSPropertyOp14
 70
     1
102
RTVSPropertyOp15
 70
     1
102
RTVSPropertyOp16
 70
     1
102
RTVSPropertyOp17
 70
     1
102
RTVSPropertyOp18
 70
     1
102
RTVSPropertyOp19
 70
     1
102
RTVSPropertyOp20
 70
     1
102
RTVSPropertyOp21
 70
     1
102
RTVSPropertyOp22
 70
     1
102
RTVSPropertyOp23
 70
     1
102
RTVSPropertyOp24
 70
     1
102
RTVSPropertyOp25
 70
     1
102
RTVSPropertyOp26
 70
     1
102
RTVSPropertyOp27
 70
     1
102
RTVSPropertyOp28
 70
     1
102
RTVSPropertyOp29
 70
     1
102
RTVSPropertyOp30
 70
     1
102
RTVSPropertyOp31
 70
     1
102
RTVSPropertyOp32
 70
     1
  0
XRECORD
  5
5FE
102
{ACAD_REACTORS
330
5FD
102
}
330
5FD
100
AcDbXrecord
280
     1
102
RTVSPropertyOp0
 70
     1
102
RTVSPropertyOp1
 70
     1
102
RTVSPropertyOp2
 70
     1
102
RTVSPropertyOp3
 70
     1
102
RTVSPropertyOp4
 70
     1
102
RTVSPropertyOp5
 70
     1
102
RTVSPropertyOp6
 70
     1
102
RTVSPropertyOp7
 70
     1
102
RTVSPropertyOp8
 70
     1
102
RTVSPropertyOp9
 70
     1
102
RTVSPropertyOp10
 70
     1
102
RTVSPropertyOp11
 70
     1
102
RTVSPropertyOp12
 70
     1
102
RTVSPropertyOp13
 70
     1
102
RTVSPropertyOp14
 70
     1
102
RTVSPropertyOp15
 70
     1
102
RTVSPropertyOp16
 70
     1
102
RTVSPropertyOp17
 70
     1
102
RTVSPropertyOp18
 70
     1
102
RTVSPropertyOp19
 70
     1
102
RTVSPropertyOp20
 70
     1
102
RTVSPropertyOp21
 70
     1
102
RTVSPropertyOp22
 70
     1
102
RTVSPropertyOp23
 70
     1
102
RTVSPropertyOp24
 70
     1
102
RTVSPropertyOp25
 70
     1
102
RTVSPropertyOp26
 70
     1
102
RTVSPropertyOp27
 70
     1
102
RTVSPropertyOp28
 70
     1
102
RTVSPropertyOp29
 70
     1
102
RTVSPropertyOp30
 70
     1
102
RTVSPropertyOp31
 70
     1
102
RTVSPropertyOp32
 70
     1
  0
XRECORD
  5
606
102
{ACAD_REACTORS
330
605
102
}
330
605
100
AcDbXrecord
280
     1
102
RTVSPropertyOp0
 70
     1
102
RTVSPropertyOp1
 70
     1
102
RTVSPropertyOp2
 70
     1
102
RTVSPropertyOp3
 70
     1
102
RTVSPropertyOp4
 70
     1
102
RTVSPropertyOp5
 70
     1
102
RTVSPropertyOp6
 70
     1
102
RTVSPropertyOp7
 70
     1
102
RTVSPropertyOp8
 70
     1
102
RTVSPropertyOp9
 70
     1
102
RTVSPropertyOp10
 70
     1
102
RTVSPropertyOp11
 70
     1
102
RTVSPropertyOp12
 70
     1
102
RTVSPropertyOp13
 70
     1
102
RTVSPropertyOp14
 70
     1
102
RTVSPropertyOp15
 70
     1
102
RTVSPropertyOp16
 70
     1
102
RTVSPropertyOp17
 70
     1
102
RTVSPropertyOp18
 70
     1
102
RTVSPropertyOp19
 70
     1
102
RTVSPropertyOp20
 70
     1
102
RTVSPropertyOp21
 70
     1
102
RTVSPropertyOp22
 70
     1
102
RTVSPropertyOp23
 70
     1
102
RTVSPropertyOp24
 70
     1
102
RTVSPropertyOp25
 70
     1
102
RTVSPropertyOp26
 70
     1
102
RTVSPropertyOp27
 70
     1
102
RTVSPropertyOp28
 70
     1
102
RTVSPropertyOp29
 70
     1
102
RTVSPropertyOp30
 70
     1
102
RTVSPropertyOp31
 70
     1
102
RTVSPropertyOp32
 70
     1
  0
ENDSEC
  0
EOF
